<?xml version="1.0" standalone="no"?>
<!DOCTYPE svg PUBLIC "-//W3C//DTD SVG 1.1//EN" "http://www.w3.org/Graphics/SVG/1.1/DTD/svg11.dtd" >
<svg xmlns="http://www.w3.org/2000/svg">
<metadata>Generated by IcoMoon</metadata>
<defs>
<font id="icomoon" horiz-adv-x="1024">
<font-face units-per-em="1024" ascent="960" descent="-64" />
<missing-glyph horiz-adv-x="1024" />
<glyph unicode="&#x20;" horiz-adv-x="512" d="" />
<glyph unicode="&#xe900;" glyph-name="chat" d="M767.872 576v128c0 176.736-127.872 256-255.872 256h-256.128c-127.872 0-255.872-68-255.872-256 0-184 128-256 255.872-256h29.76c-17.856-34.656-29.28-75.84-29.632-125.824v-132.672c1.344-140.192 115.456-253.504 256-253.504 0 70.752 57.376 128 128 128h127.872c128.128 0 256.128 72 256.128 256 0 188-128 256-256.128 256zM255.872 576c-127.872 0-127.872 96.384-127.872 128 0 38.368 0 128 127.872 128h256.128c47.872 0 128-16.64 128-128v-128c0-41.824-20.128-79.072-51.488-102.432-46.752 62.176-121.024 102.432-204.512 102.432h-128.128zM767.872 192h-127.872c-83.616 0-158.016-40.256-204.736-102.368-31.136 23.36-51.264 60.608-51.264 102.368v128c0 58.56 29.12 94.112 58.112 112.384 41.024-21.376 69.888-63.008 69.888-112.384 94.592 0 176.192 51.84 220.608 128.064l35.264-0.064c128.128 0 128.128-89.696 128.128-128 0-31.68 0-128-128.128-128z" />
<glyph unicode="&#xe901;" glyph-name="chat-alt-stroke" d="M831.264 569.184c-0.864-44.384-10.752-86.24-28.256-124.448 92.256-15.36 92.992-90.496 92.992-124.736 0-31.744 0-128-127.872-128h-128.128c-83.36 0-158.016-40.256-204.736-102.496-31.008 23.488-51.264 60.736-51.264 102.496v128c0 25.248 4.512 45.248 11.488 61.696-3.744 0.672-7.488 2.304-11.488 2.304h-121.504c-4.128-19.808-6.368-40.992-6.368-64v-128c0-141.376 114.496-256 255.872-256 0 70.752 57.248 128 128 128h128.128c127.872 0 255.872 72 255.872 256 0 156.576-88.992 229.12-192.736 249.184zM512 832c47.744 0 128-16.64 128-128v-128c0-41.888-20.256-79.072-51.264-102.432-46.72 62.112-121.248 102.432-204.736 102.432h-127.872c-128.128 0-128.128 96.32-128.128 128 0 38.24 0 128 128.128 128h255.872M512 960h-255.872c-128.128 0-256.128-68-256.128-256 0-184 128-256 256.128-256h127.872c70.752 0 128-57.376 128-128 141.376 0 256.128 114.624 256.128 256v128c0 176.672-128.128 256-256.128 256v0z" />
<glyph unicode="&#xe902;" glyph-name="chat-alt-fill" d="M512 320c141.376 0 255.872 114.624 255.872 256v128c0 176.672-127.872 256-255.872 256h-256.128c-127.872 0-255.872-68-255.872-256 0-184 128-256 255.872-256h128.128c70.624 0 128-57.376 128-128zM831.36 569.184c-3.744-173.184-145.344-313.184-319.36-313.184h-64v64c0 35.328-28.736 64-64 64h-121.632c-3.84-19.104-6.208-39.552-6.368-61.632v-132.832c1.344-140.224 115.456-253.536 256-253.536 0 70.752 57.376 128 128 128h127.872c128.128 0 256.128 72 256.128 256 0 156.576-89.12 229.12-192.64 249.184z" />
<glyph unicode="&#xe903;" glyph-name="comment-alt1-stroke" d="M512.064 704c354.304 0 383.936-132.128 383.936-256 0-43.008-11.36-89.76-23.872-128h-424c-150.496 0-215.616-6.24-288-56.256-30.016 82.24-49.248 193.504-12.128 282.88 43.232 104.384 165.728 157.376 364.064 157.376M512.064 832c-715.872 0-511.712-640-383.872-768 128 128 128 128 319.872 128h509.92c0 0 66.016 128 66.016 256 0 320-255.904 384-511.936 384v0z" />
<glyph unicode="&#xe904;" glyph-name="comment" d="M958.016 192c0 0 66.016 128 66.016 256-0.032 320-255.936 384-511.968 384-715.872 0-511.712-640-383.872-768 128 128 128 128 319.872 128h509.952z" />
<glyph unicode="&#xe905;" glyph-name="comment-stroke" d="M640 768c141.248 0 256-114.752 256-256s-114.752-256-256-256h-256c-83.488 0-157.888-40.256-204.64-102.496-31.104 23.488-51.36 60.736-51.36 102.496v320c0 105.888 86.24 192 192 192h320M640 896h-320c-176.736 0-320-143.264-320-320v-320c0-141.376 114.752-256 256-256 0 70.752 57.376 128 128 128h256c212.128 0 384 172 384 384s-171.872 384-384 384v0z" />
<glyph unicode="&#xe906;" glyph-name="comment-fill" d="M0 256c0-141.376 114.752-256 256-256 0 70.752 57.376 128 128 128h256c212.128 0 384 172 384 384s-171.872 384-384 384h-320c-176.736 0-320-143.264-320-320v-320z" />
<glyph unicode="&#xe907;" glyph-name="comment-alt2-stroke" horiz-adv-x="896" d="M448 960c-247.36 0-448-200.64-448-448 0-122.624 49.504-233.504 129.376-314.496l0.736-261.504 212.384 141.888c34.016-8.384 68.992-13.888 105.504-13.888 247.36 0 448 200.64 448 448s-200.64 448-448 448zM448 192c-22.624 0-47.136 3.36-74.88 10.112l-54.496 13.504-61.376-40.64 0.384 74.752-37.12 37.632c-59.648 60.512-92.512 140.256-92.512 224.64 0 176.512 143.488 320 320 320s320-143.488 320-320c0-176.512-143.488-320-320-320z" />
<glyph unicode="&#xe908;" glyph-name="comment-alt2-fill" horiz-adv-x="896" d="M448 960c-247.36 0-448-200.64-448-448 0-122.624 49.504-233.504 129.376-314.496l-1.376-261.504 214.496 141.888c34.016-8.384 68.992-13.888 105.504-13.888 247.36 0 448 200.64 448 448s-200.64 448-448 448z" />
<glyph unicode="&#xe909;" glyph-name="checkmark3" d="M192 576l-192-192 384-384 640 640-192 192-448-448z" />
<glyph unicode="&#xe90a;" glyph-name="check-alt" d="M512 960c-282.752 0-512-229.248-512-512s229.248-512 512-512 512 229.248 512 512-229.248 512-512 512zM432.64 211.744l-235.584 235.616 90.496 90.496 145.056-145.12 307.744 307.744 90.496-90.496-398.208-398.24z" />
<glyph unicode="&#xe90b;" glyph-name="x" d="M960 179.264l-268.992 268.736 268.992 268.736-179.264 179.264-268.736-268.864-268.864 268.864-179.136-179.264 268.736-268.736-268.736-268.736 179.136-179.264 268.864 268.864 268.736-268.864z" />
<glyph unicode="&#xe90c;" glyph-name="x-altx-alt" d="M512 960c-282.752 0-512-229.248-512-512s229.248-512 512-512 512 229.248 512 512-229.248 512-512 512zM765.248 285.248l-90.496-90.496-162.752 162.752-162.752-162.752-90.496 90.496 162.752 162.752-162.752 162.752 90.496 90.496 162.752-162.752 162.752 162.752 90.496-90.496-162.752-162.752 162.752-162.752z" />
<glyph unicode="&#xe90d;" glyph-name="denied" d="M512 960c-282.752 0-512-229.248-512-512s229.248-512 512-512 512 229.248 512 512-229.248 512-512 512zM512 832c82.88 0 159.136-27.008 221.888-71.744l-534.272-534.016c-44.736 62.752-71.616 139.008-71.616 221.76 0 211.744 172.256 384 384 384zM512 64c-82.88 0-159.136 27.008-221.888 71.744l534.272 534.016c44.736-62.752 71.616-139.008 71.616-221.76 0-211.744-172.256-384-384-384z" />
<glyph unicode="&#xe90e;" glyph-name="cursor" d="M1024 64l-448 448 192 192-768 256 256-767.872 192 192 448-448.128z" />
<glyph unicode="&#xe90f;" glyph-name="rss3" d="M0 64c0 70.692 57.308 128 128 128s128-57.308 128-128c0-70.692-57.308-128-128-128s-128 57.308-128 128zM192 960v-128c388.736 0 704-315.232 704-704h128c0 459.456-372.576 832-832 832zM192.736 703.744c-0.256 0-0.48-0.032-0.736-0.032v-128c0.256 0 0.48 0.032 0.736 0.032 247.328 0 447.872-200.48 448-447.744h128c-0.128 317.984-257.984 575.744-576 575.744zM192.736 447.744c-0.256 0-0.48-0.032-0.736-0.032v-128c0.256 0 0.48 0.032 0.736 0.032 105.952 0 191.872-85.856 192-191.744h128c-0.128 176.608-143.36 319.744-320 319.744z" />
<glyph unicode="&#xe910;" glyph-name="rss-alt" d="M1024-64h-146.24c0 484-393.76 877.696-877.76 877.696v146.304c564.512 0 1024-459.36 1024-1024v0zM731.36-64h-146.24c0 322.624-262.624 585.12-585.12 585.12v146.304c403.264 0 731.36-328.16 731.36-731.424v0zM438.88-64h-146.368c0 161.376-131.136 292.512-292.512 292.512v146.368c241.984 0 438.88-196.896 438.88-438.88v0zM146.24-64c0 80.736-65.376 146.24-146.24 146.24v-146.24h146.24z" />
<glyph unicode="&#xe911;" glyph-name="wrench2" horiz-adv-x="1022" d="M1011.424 779.424l-160.736-160.736h-168v170.624l158.752 158.688c-23.488 7.072-47.744 12-73.504 12-141.312 0-255.936-114.688-255.936-256 0-39.424 9.632-76.32 25.632-109.76l-512.64-512.48c-15.36-15.52-24.992-36.768-24.992-60.512 0-47.008 38.112-85.248 85.376-85.248 23.616 0 44.992 9.504 60.256 24.992l512.736 512.576c33.312-15.872 70.304-25.568 109.568-25.568 141.504 0 256 114.688 256 256 0 26.432-4.992 51.424-12.512 75.424z" />
<glyph unicode="&#xe912;" glyph-name="dial" horiz-adv-x="1028" d="M386.076 448c-0.001 0.151-0.001 0.329-0.001 0.507 0 71.075 57.617 128.692 128.692 128.692 70.54 0 127.824-56.753 128.682-127.089 0.009-2.261 0.010-2.439 0.010-2.618 0-71.075-57.617-128.692-128.692-128.692-70.54 0-127.824 56.753-128.682 127.089zM918.698 767.156c-11.068-9.104-24.516-15.186-39.958-15.186-35.454 0-64.346 28.826-64.346 64.7 0 15.636 6.274 29.566 15.572 40.956-71.392 55.338-157.84 92.594-252.108 104.402-3.282-32.624-29.664-58.394-63.092-58.394s-60.196 26.060-63.092 59.134c-95.52-12.388-182.484-50.32-254.486-107.652 8.172-10.874 13.964-23.744 13.964-38.414 0-35.872-28.666-64.7-64.346-64.7-14.316 0-27.154 5.566-37.836 13.674-67.242-87.446-108.97-195.838-108.97-314.91 0-285.792 230.486-517.534 514.766-517.534s514.766 231.742 514.766 517.534c0.002 120.198-42.21 229.072-110.834 316.39zM514.766 193.384c-142.14 0-257.384 115.244-257.384 257.384 0 71.134 28.794 135.352 75.414 181.97l181.97 181.97 181.712-181.712c46.782-46.62 75.672-111.094 75.672-182.23 0-142.268-115.244-257.382-257.384-257.382z" />
<glyph unicode="&#xe913;" glyph-name="cog2" d="M1024 384.992v128l-152.992 63.744c-4.256 12-8.736 23.616-14.24 35.008l61.76 153.76-90.528 90.496-152.384-62.752c-11.616 5.632-23.488 10.368-35.744 14.752l-64.864 152h-128l-63.264-151.488c-12.736-4.512-24.992-9.248-37.12-15.008l-152.128 61.12-90.496-90.496 62.016-150.752c-6.016-12.384-10.88-24.992-15.52-38.016l-150.496-64.352v-128l150.624-62.752c4.64-12.992 9.632-25.632 15.616-38.016l-60.864-151.744 90.496-90.496 151.136 62.24c12.128-5.76 24.512-10.368 37.248-14.752l64.736-151.488h128l63.36 152.256c12.128 4.512 24.128 9.248 35.616 14.752l153.504-61.504 90.496 90.496-63.008 152.736c5.376 11.488 9.76 23.136 14.016 35.008l153.024 65.248zM511.008 256c-105.984 0-192 86.016-192 192s86.016 192 192 192 192-86.016 192-192-86.016-192-192-192z" />
<glyph unicode="&#xe914;" glyph-name="calendar2" d="M768 832v128h-128v-128h-256v128h-128v-128h-256v-128h1024v128zM128 320h768v-128h-768zM128 576h768v-128h-768zM128-64h640l128 128h-768z" />
<glyph unicode="&#xe915;" glyph-name="calendar-alt-stroke" d="M1024-64h-1024v896h128v-768h768v768h128zM192 576h128v-128h-128zM448 576h128v-128h-128zM704 576h128v-128h-128zM192 320h128v-128h-128zM448 320h128v-128h-128zM704 192v128h128zM256 768v128c0 35.36 28.64 64 64 64s64-28.64 64-64v-128c0-35.36-28.64-64-64-64s-64 28.64-64 64zM640 768v128c0 35.36 28.64 64 64 64s64-28.64 64-64v-128c0-35.36-28.64-64-64-64s-64 28.64-64 64z" />
<glyph unicode="&#xe916;" glyph-name="calendar-alt-fill" d="M832 832v-65.504c0-70.752-57.248-128-128-128s-128 57.248-128 128v65.504h-128v-65.504c0-70.752-57.248-128-128-128s-128 57.248-128 128v65.504h-192v-896h1024v896h-192zM320 64h-128v128h128v-128zM320 320h-128v128h128v-128zM576 64h-128v128h128v-128zM576 320h-128v128h128v-128zM704 64v128h128l-128-128zM832 320h-128v128h128v-128zM256 768v128c0 35.36 28.64 64 64 64s64-28.64 64-64v-128c0-35.36-28.64-64-64-64s-64 28.64-64 64zM640 768v128c0 35.36 28.64 64 64 64s64-28.64 64-64v-128c0-35.36-28.64-64-64-64s-64 28.64-64 64z" />
<glyph unicode="&#xe917;" glyph-name="share3" horiz-adv-x="1022" d="M895.936 192c-31.008 0-58.496-12.512-80.736-30.88l-195.072 139.264c12.384 25.504 19.872 53.504 19.872 83.616 0 41.376-13.504 79.616-35.744 110.88l228.192 228.384c18.976-11.136 40-19.264 63.488-19.264 70.752 0 128 57.248 128 128s-57.248 128-128 128-128-57.248-128-128c0-23.616 8.256-44.512 19.264-63.488l-228.192-228.384c-31.52 22.496-69.504 35.872-111.008 35.872-73.248 0-136.256-41.632-168.64-102.112l-154.112 51.488c-6.24 28.736-30.624 50.624-61.248 50.624-35.36 0-64-28.64-64-64s28.64-64 64-64c16.128 0 30.496 6.496 41.76 16.384l153.248-51.136c-1.504-9.632-3.008-19.264-3.008-29.248 0-105.984 86.016-192 192-192 52.736 0 100.64 21.376 135.36 55.872l193.824-138.368c-5.504-14.24-9.248-29.376-9.248-45.504 0-70.624 57.248-128 128-128s128 57.376 128 128-57.248 128-128 128z" />
<glyph unicode="&#xe918;" glyph-name="mail5" d="M511.872 465.376l512.128 241.248v125.376h-1024v-124.992zM512.128 323.872l-512.128 241.888v-501.76h1024v500.992z" />
<glyph unicode="&#xe919;" glyph-name="heart-stroke" d="M739.616 768c78.624 0 143.744-58.24 154.752-134.016l-382.24-438.976-382.496 438.976c11.008 75.776 76.128 134.016 154.752 134.016 64.512 0 123.36-69.248 123.36-69.248l104.256-110.752 104.256 110.752c0 0 58.88 69.248 123.36 69.248M739.616 896c-95.488 0-176-50.496-227.616-123.008-51.616 72.512-132.128 123.008-227.616 123.008-156.896 0-284.384-127.744-284.384-284.512v-23.488l512.256-588 511.744 588v23.488c0 156.768-127.488 284.512-284.384 284.512v0z" />
<glyph unicode="&#xe91a;" glyph-name="heart-fill" d="M512 772.992c-51.616 72.512-132.128 123.008-227.616 123.008-156.896 0-284.384-127.744-284.384-284.512v-23.488l512.256-588 511.744 588v23.488c0 156.768-127.488 284.512-284.384 284.512-95.488 0-176-50.496-227.616-123.008z" />
<glyph unicode="&#xe91b;" glyph-name="movie" d="M895.264 704h-126.368l127.104 127.488-125.632 128.512h-178.112l127.616-127.488-130.752-128.512h-151.136l129.888 127.488-128.384 128.512h-180.992l127.488-127.488-130.72-128.512h-128.256l129.984 127.488-128.48 128.512h-128.512v-1024h1024v1024h-125.504l125.504-128-128.736-128zM896 64h-768v128h768v-128zM896 320h-768v128h768v-128z" />
<glyph unicode="&#xe91c;" glyph-name="document-alt-stroke" horiz-adv-x="768" d="M448 960h-448v-1024h768v704.064l-320 319.936zM128 64v768h256v-256h256v-512h-512z" />
<glyph unicode="&#xe91d;" glyph-name="document-alt-fill" horiz-adv-x="768" d="M448 960h-448v-1024h768v704.064l-320 319.936zM381.376 576v256l256-256h-256z" />
<glyph unicode="&#xe91e;" glyph-name="document-stroke" d="M704.512 960h-704.512v-1022.016l257.632 210.496 256.608-212.48 256.384 212.256 253.376-211.744v703.488l-319.488 320zM896.64 193.984l-126.496 103.264-255.872-211.744-255.36 211.488-130.752-103.008c0 0 0 555.488 0 640 67.264 0 249.888 0 384.256 0v-384h384.224c0-87.36 0-256 0-256zM640.512 577.984c0 49.376 0 189.248 0 256 51.744-51.744 204.864-204.736 256.128-256-65.504 0-206.4 0-256.128 0z" />
<glyph unicode="&#xe91f;" glyph-name="document-fill" d="M691.488 960h-691.488v-1024l255.264 212.512 256.48-212.512 256.128 212.256 256.128-212.256v694.368l-332.512 329.632zM576 512v320l320-320h-320z" />
<glyph unicode="&#xe920;" glyph-name="plus2" d="M1024 576h-384v384h-256v-384h-384v-256h384v-384h256v384h384z" />
<glyph unicode="&#xe921;" glyph-name="plus-alt" d="M512 960c-282.752 0-512-229.248-512-512s229.248-512 512-512 512 229.248 512 512-229.248 512-512 512zM768 384h-192v-192h-128v192h-192v128h192v192h128v-192h192v-128z" />
<glyph unicode="&#xe922;" glyph-name="minus2" d="M0 576h1024v-256h-1024z" />
<glyph unicode="&#xe923;" glyph-name="minus-alt" d="M512 960c-282.752 0-512-229.248-512-512s229.248-512 512-512 512 229.248 512 512-229.248 512-512 512zM768 384h-512v128h512v-128z" />
<glyph unicode="&#xe924;" glyph-name="pin" d="M1024 704c0 141.312-114.752 256-256 256-95.488 0-177.984-53.056-222.016-130.752 0 0.064 0.128 0.128 0.128 0.192-11.744 1.12-23.136 3.552-35.136 3.552-212.128 0-384-171.872-384-384 0-80.864 25.248-155.744 67.872-217.504l-194.848-295.488 297.248 193.984c61.12-40.992 134.624-64.992 213.76-64.992 212.128 0 384 171.872 384 384 0 11.072-2.24 21.44-3.264 32.256 78.496 43.744 132.256 126.56 132.256 222.752zM511.008 192.992c-141.248 0-256 114.752-256 256 0 141.184 114.752 256 256 256 0.384 0 0.736-0.128 0.992-0.128 0 0.256 0.128 0.448 0.128 0.64 0-0.512-0.128-0.992-0.128-1.504 0-22.24 3.744-43.36 8.992-63.936l-101.504-101.568c-49.984-49.984-49.984-131.008 0-180.992s131.008-49.984 180.992 0l100.512 100.512c21.12-5.76 43.008-9.76 65.888-9.888-0.512-140.864-115.008-255.136-255.872-255.136zM768 576c-70.496 0-128 57.44-128 128s57.504 128 128 128 128-57.44 128-128-57.504-128-128-128z" />
<glyph unicode="&#xe925;" glyph-name="link2" d="M1005.248 941.248c-24.992 24.992-65.888 24.992-90.88 0l-130.24-130.368c-53.376 35.488-114.624 53.12-176.128 53.12-81.888 0-163.744-31.264-226.24-93.76l-192-192c-109.504-109.376-123.008-278.496-40.736-402.624l-130.24-130.368c-24.992-24.992-24.992-65.504 0-90.496 12.48-12.512 28.832-18.752 45.216-18.752s32.736 6.24 45.248 18.752l130.24 130.368c53.376-35.488 115.008-53.12 176.512-53.12 81.888 0 163.744 31.264 226.24 93.76l191.616 192c109.504 109.376 123.008 278.496 40.736 402.624l130.624 130.368c25.024 24.992 25.024 65.504 0.032 90.496zM799.616 544c0-51.264-20-99.488-56.256-135.744l-191.616-192c-36.256-36.256-84.48-56.256-135.744-56.256-28.992 0-56.736 7.136-82.24 19.264l95.488 95.488c24.992 24.992 24.992 65.504 0 90.496s-65.504 24.992-90.496 0l-95.488-95.488c-12.256 25.376-19.264 53.12-19.264 82.24 0 51.264 20 99.488 56.256 135.744l192 192c36.256 36.256 84.48 56.256 135.744 56.256 28.992 0 56.64-7.136 82.112-19.264l-97.376-97.504c-24.992-24.992-24.992-65.504 0-90.496 12.512-12.512 28.864-18.752 45.248-18.752 16.256 0 32.64 6.24 45.12 18.752l97.248 97.504c12.288-25.376 19.264-53.12 19.264-82.24z" />
<glyph unicode="&#xe926;" glyph-name="bolt" d="M1024 960l-768-512 192-128-448-384 768 384-192 128z" />
<glyph unicode="&#xe927;" glyph-name="move" d="M576 320v-192h128l-192-192-192 192h128v192zM448 576v192h-128l192 192 192-192h-128v-192zM384 384h-192v-128l-192 192 192 192v-128h192zM640 512h192v128l192-192-192-192v128h-192z" />
<glyph unicode="&#xe928;" glyph-name="move-alt1" d="M512 256l64 64v-192h128l-192-192-192 192h128v192zM512 638.016l-64-62.016v192h-128l192 192 192-192h-128v-192zM320 448l64-64h-192v-128l-192 192 192 192v-128h192zM702.016 448l-62.016 64h192v128l192-192-192-192v128h-192z" />
<glyph unicode="&#xe929;" glyph-name="move-alt2" d="M512 960c-282.752 0-512-229.248-512-512s229.248-512 512-512 512 229.248 512 512-229.248 512-512 512zM704 320v64h-128v-128h64l-128-128-128 128h64v128h-128v-64l-128 128 128 128v-64h128v128h-64l128 128 128-128h-64v-128h128v64l128-128-128-128z" />
<glyph unicode="&#xe92a;" glyph-name="equalizer3" d="M576 896c0 35.2-28.8 64-64 64s-64-28.8-64-64v-576h-64v-128h64v-192c0-35.2 28.8-64 64-64s64 28.8 64 64v192h64v128h-64v576zM192 896c0 35.2-28.8 64-64 64s-64-28.8-64-64v-320h-64v-128h64v-448c0-35.2 28.8-64 64-64s64 28.8 64 64v448h64v128h-64v320zM1024 704h-64v192c0 35.2-28.8 64-64 64s-64-28.8-64-64v-192h-64v-128h64v-576c0-35.2 28.8-64 64-64s64 28.8 64 64v576h64v128z" />
<glyph unicode="&#xe92b;" glyph-name="award-fill" horiz-adv-x="512" d="M256 320c-45.12 0-87.744 9.248-128 23.552v-407.552l128 128 128-128v407.552c-40.256-14.304-82.88-23.552-128-23.552zM0 704c0 141.385 114.615 256 256 256s256-114.615 256-256c0-141.385-114.615-256-256-256s-256 114.615-256 256z" />
<glyph unicode="&#xe92c;" glyph-name="award-stroke" horiz-adv-x="512" d="M256 320c-45.12 0-87.744 9.248-128 23.488v-407.488l128 128 128-128v407.488c-40.256-14.24-82.88-23.488-128-23.488zM256 960c-141.376 0-256-114.624-256-256s114.624-256 256-256 256 114.624 256 256-114.624 256-256 256zM256 576c-70.752 0-128 57.312-128 128s57.248 128 128 128 128-57.312 128-128-57.248-128-128-128z" />
<glyph unicode="&#xe92d;" glyph-name="magnifying-glass" d="M644.256 960c-209.248 0-379.52-170.24-379.52-379.616 0-50.112 10.24-97.632 27.872-141.376l-292.608-292.64 210.24-210.368 292.736 292.864c43.744-17.76 91.264-28 141.248-28 209.376 0 379.744 170.24 379.744 379.456 0.032 209.44-170.336 379.68-379.712 379.68zM644.256 328.736c-138.624 0-251.616 112.992-251.616 251.584 0 138.752 112.992 251.744 251.616 251.744 138.88 0 251.872-112.992 251.872-251.744 0-138.56-112.992-251.584-251.872-251.584z" />
<glyph unicode="&#xe92e;" glyph-name="trash-stroke" d="M1024 832h-256c0 70.752-57.248 128-128 128h-256c-70.752 0-128-57.248-128-128h-256v-128h128v-576c0-105.984 86.016-192 192-192h384c105.984 0 192 86.016 192 192v576h128v128zM768 128c0-35.264-28.736-64-64-64h-384c-35.264 0-64 28.736-64 64v576h512v-576zM320 256c0 35.346 28.654 64 64 64s64-28.654 64-64c0-35.346-28.654-64-64-64s-64 28.654-64 64zM320 512c0 35.346 28.654 64 64 64s64-28.654 64-64c0-35.346-28.654-64-64-64s-64 28.654-64 64zM576 256c0 35.346 28.654 64 64 64s64-28.654 64-64c0-35.346-28.654-64-64-64s-64 28.654-64 64zM576 512c0 35.346 28.654 64 64 64s64-28.654 64-64c0-35.346-28.654-64-64-64s-64 28.654-64 64z" />
<glyph unicode="&#xe92f;" glyph-name="trash-fill" d="M896 832h-128c0 70.752-57.248 128-128 128h-256c-70.752 0-128-57.248-128-128h-256v-128h128v-576c0-105.984 86.016-192 192-192h384c105.984 0 192 86.016 192 192v576h128v128h-128zM384 192c-35.36 0-64 28.64-64 64s28.64 64 64 64 64-28.64 64-64-28.64-64-64-64zM384 448c-35.36 0-64 28.64-64 64s28.64 64 64 64 64-28.64 64-64-28.64-64-64-64zM640 192c-35.36 0-64 28.64-64 64s28.64 64 64 64 64-28.64 64-64-28.64-64-64-64zM640 448c-35.36 0-64 28.64-64 64s28.64 64 64 64 64-28.64 64-64-28.64-64-64-64z" />
<glyph unicode="&#xe930;" glyph-name="beaker-alt" horiz-adv-x="512" d="M256 672c0 17.673 14.327 32 32 32s32-14.327 32-32c0-17.673-14.327-32-32-32s-32 14.327-32 32zM448 960h-384c-35.36 0-64-28.64-64-64v-704c0-141.376 114.624-256 256-256s256 114.624 256 256v704c0 35.36-28.64 64-64 64zM160 320c-17.664 0-32 14.304-32 32s14.336 32 32 32c17.696 0 32-14.304 32-32s-14.304-32-32-32zM320 192c-35.36 0-64 28.64-64 64s28.64 64 64 64 64-28.64 64-64-28.64-64-64-64zM384 448h-64c0 35.328-28.672 64-64 64s-64-28.672-64-64h-64v384h256v-384z" />
<glyph unicode="&#xe931;" glyph-name="beaker" horiz-adv-x="512" d="M448 960h-384c-35.36 0-64-28.64-64-64v-704c0-141.376 114.624-256 256-256s256 114.624 256 256v704c0 35.36-28.64 64-64 64zM320 192c-35.36 0-64 28.64-64 64s28.64 64 64 64 64-28.64 64-64-28.64-64-64-64zM384 448h-64c0 35.328-28.672 64-64 64s-64-28.672-64-64h-64v384h256v-384z" />
<glyph unicode="&#xe932;" glyph-name="key-stroke" d="M704 960c-176.736 0-320-143.264-320-320 0-20 2.368-39.264 5.888-58.112l-389.888-389.888v-256h384v128h128v128h128v128l5.888 5.888c18.848-3.52 38.112-5.888 58.112-5.888 176.736 0 320 143.264 320 320s-143.264 320-320 320zM704 448c-10.016 0-20.992 1.248-34.752 3.744l-66.24 12.256-91.008-91.008v-52.992h-128v-128h-128v-128h-128v75.008l400 400-12.256 66.24c-2.56 13.76-3.744 24.768-3.744 34.752 0 105.888 86.112 192 192 192s192-86.112 192-192-86.112-192-192-192zM640 640c0 35.346 28.654 64 64 64s64-28.654 64-64c0-35.346-28.654-64-64-64s-64 28.654-64 64z" />
<glyph unicode="&#xe933;" glyph-name="key-fill" d="M704 960c-176.736 0-320-143.264-320-320 0-20 2.368-39.264 5.888-58.112l-389.888-389.888v-256h384v128h128v128h128v128l5.888 5.888c18.848-3.52 38.112-5.888 58.112-5.888 176.736 0 320 143.264 320 320s-143.264 320-320 320zM704.256 576c-35.36 0-64 28.64-64 64s28.64 64 64 64 64-28.64 64-64-28.64-64-64-64z" />
<glyph unicode="&#xe934;" glyph-name="new-window" d="M1024 960h-768v-256c-92.992 0-256 0-256 0v-768h768v256h256v768zM640 64h-512v384h128v-256h384c0-57.248 0-128 0-128zM896 320h-512v384h512v-384z" />
<glyph unicode="&#xe935;" glyph-name="lightbulb" horiz-adv-x="640" d="M320 831.744c105.952 0 192-86.368 192-192.512 0-60.64-27.616-116.384-75.936-152.736-72.256-54.624-101.44-115.008-111.488-165.76h-9.152c-10.016 50.752-39.296 111.136-111.488 165.76-48.256 36.384-76 92.128-76 152.736 0 106.144 86.112 192.512 192.064 192.512M320 960c-176.736 0-320-143.616-320-320.736 0-105.024 49.44-196.768 127.008-255.264 35.68-27.008 65.12-61.76 65.12-109.76v-81.76h255.808v81.76c0 48 29.44 82.752 65.056 109.76 77.632 58.496 127.008 150.24 127.008 255.264 0 177.12-143.264 320.736-320 320.736v0zM192 64h256v-128h-256z" />
<glyph unicode="&#xe936;" glyph-name="spin-alt" d="M150.112 85.76c-96.864 96.736-150.112 225.248-150.112 362.24 0 282.24 229.632 512 512 512l64-64-64-64c-211.744 0-384-172.256-384-384 0-102.752 40-199.264 112.64-271.744l-78.624-10.24-11.904-80.256zM512-64l-64 63.744 64 64.256c211.744 0 384 172.256 384 384 0 102.496-40 199.008-112.736 271.616l78.752 10.368 11.744 80.128c96.864-96.736 150.24-225.376 150.24-362.112 0-282.24-229.76-512-512-512v0z" />
<glyph unicode="&#xe937;" glyph-name="spin" horiz-adv-x="896" d="M764.256 765.248l-90.24-90.624c60.48-60.512 93.984-140.992 93.984-226.624 0-176.512-143.488-320-320-320v64l-128-128 128-128v64c247.008 0 448 200.992 448 448 0 119.872-46.752 232.512-131.744 317.248zM576 832l-128 128v-64c-247.008 0-448-200.992-448-448 0-119.872 46.752-232.512 131.744-317.248l90.24 90.624c-60.48 60.512-93.984 140.992-93.984 226.624 0 176.512 143.488 320 320 320v-64l128 128z" />
<glyph unicode="&#xe938;" glyph-name="curved-arrow" d="M896 384c0 247.36-200.64 448-448 448s-448-200.64-448-448c0 176.736 143.264 320 320 320s320-143.264 320-320v-64h-128l256-256 256 256h-128v64z" />
<glyph unicode="&#xe939;" glyph-name="undo3" horiz-adv-x="1022" d="M900.936 840.968c-158.614 158.582-435.332 158.71-593.85 0l-179.094-179.222v170.23h-127.992v-383.976h383.976v127.992l-160.726-0.096 174.486 174.486c110.234 110.362 302.478 110.362 412.71-0.128 55.132-55.134 85.498-128.376 85.498-206.356 0-78.076-30.366-151.35-85.498-206.644l-96.506-96.474 90.49-90.458 96.506 96.25c79.258 79.516 123 185.046 123 297.326 0 112.216-43.742 217.714-123 297.070zM590.332-64l-90.492 90.618 90.556 90.458 90.49-90.618z" />
<glyph unicode="&#xe93a;" glyph-name="reload" d="M768 384c0-141.12-114.752-256-256-256s-256 114.88-256 256 114.752 256 256 256l75.488-0.864-37.248-37.248 90.496-90.496 192.384 192.608-192.384 192-90.496-90.496 37.76-37.504h-76c-212 0-384-171.872-384-384s172-384 384-384 384 171.872 384 384h-128z" />
<glyph unicode="&#xe93b;" glyph-name="reload-alt" d="M768 384c0-141.248-114.752-256-256-256s-256 114.752-256 256 114.752 256 256 256h128l0.736-128.64 192.384 192.64-192.384 192v-128h-128.736c-212 0-384-172-384-384s172-384 384-384 384 172 384 384h-128z" />
<glyph unicode="&#xe93c;" glyph-name="loop3" d="M640 448v-128h151.616l-171.872-171.872c-108.448-108.672-297.888-108.672-406.432 0l-90.56-90.368c78.432-78.528 182.88-121.76 293.888-121.76 111.072 0 215.264 43.264 293.6 121.76l185.76 185.6v-179.36h128v384h-384zM384 576h-151.616l171.872 171.872c108.448 108.672 297.888 108.672 406.432 0l90.56 90.368c-78.432 78.496-182.88 121.76-293.92 121.76-111.072 0-215.264-43.264-293.6-121.76l-185.728-185.6v179.36h-128v-384h384v128z" />
<glyph unicode="&#xe93d;" glyph-name="loop-alt1" d="M384 640h-128v0.512c0 35.264 28.736 63.488 64 63.488h384c35.264 0 64-28.736 64-64v-64h128v64c0 105.888-86.112 192-192 192h-384c-105.888 0-192-86.112-192-192h-128l192-192 192 192zM832 448l-192-192h128v-0.512c0-35.232-28.736-63.488-64-63.488h-384c-35.264 0-64 28.736-64 64v64h-128v-64c0-105.888 86.112-192 192-192h384c105.888 0 192 86.112 192 192h128l-192 192z" />
<glyph unicode="&#xe93e;" glyph-name="loop-alt2" d="M384 640h-128v64c0 35.264 28.736 64 64 64h384c35.264 0 64-28.736 64-64v-64h128v64c0 105.888-86.112 192-192 192h-384c-105.888 0-192-86.112-192-192v-64h-128l192-256 192 256zM832 512l-192-256h128v-64c0-35.264-28.736-64-64-64h-384c-35.264 0-64 28.736-64 64v64h-128v-64c0-105.888 86.112-192 192-192h384c105.888 0 192 86.112 192 192v64h128l-192 256z" />
<glyph unicode="&#xe93f;" glyph-name="loop-alt3" d="M896 448v-64c0-35.264-28.736-64-64-64h-448.128l0.128 128-256-192 256-192-0.128 128h448.128c105.888 0 192 86.24 192 192v64h-128zM128 512c0 35.36 28.736 64 64 64h448v-128l255.744 192-255.744 192v-128h-448c-105.888 0-192-86.016-192-192v-64h128v64z" />
<glyph unicode="&#xe940;" glyph-name="loop-alt4" d="M896 384c0-35.264-28.736-64-64-64h-576.256v128l-255.744-192 255.744-192v128h576.256c105.888 0 192 86.24 192 192h-128zM192 576h576v-128l256 192-256 192v-128h-576c-105.888 0-192-86.016-192-192h128c0 35.264 28.736 64 64 64z" />
<glyph unicode="&#xe941;" glyph-name="transfer" horiz-adv-x="1022" d="M1023.936 192h-768.192v-128l-255.744 192 255.744 192v-128h768.192zM0 576h767.936v-128l256 192-256 192v-128h-767.936z" />
<glyph unicode="&#xe942;" glyph-name="move-vertical" horiz-adv-x="384" d="M256 320v-192h128l-192-192-192 192h128v192zM128 576v192h-128l192 192 192-192h-128v-192z" />
<glyph unicode="&#xe943;" glyph-name="move-vertical-alt1" horiz-adv-x="384" d="M192 256l64 64v-192h128l-192-192-192 192h128v192zM192 638.016l-64-62.016v192h-128l192 192 192-192h-128v-192z" />
<glyph unicode="&#xe944;" glyph-name="move-vertical-alt2" d="M512 960c-282.752 0-512-229.248-512-512s229.248-512 512-512 512 229.248 512 512-229.248 512-512 512zM576 256h64l-128-128-128 128h64v384h-64l128 128 128-128h-64v-384z" />
<glyph unicode="&#xe945;" glyph-name="move-horizontal" d="M384 384h-192v-128l-192 192 192 192v-128h192zM640 512h192v128l192-192-192-192v128h-192z" />
<glyph unicode="&#xe946;" glyph-name="move-horizontal-alt1" d="M320 448l64-64h-192v-128l-192 192 192 192v-128h192zM702.016 448l-62.016 64h192v128l192-192-192-192v128h-192z" />
<glyph unicode="&#xe947;" glyph-name="move-horizontal-alt2" d="M1024 448c0 282.752-229.248 512-512 512s-512-229.248-512-512 229.248-512 512-512 512 229.248 512 512zM320 384v-64l-128 128 128 128v-64h384v64l128-128-128-128v64h-384z" />
<glyph unicode="&#xe948;" glyph-name="arrow-left3" d="M1024 576h-512l192 192-192 192-512-512 512-512 192 192-192 192h512z" />
<glyph unicode="&#xe949;" glyph-name="arrow-left-alt1" d="M1024 448c0 282.752-229.248 512-512 512-282.784 0-512-229.248-512-512 0-282.784 229.216-512 512-512 282.752 0 512 229.216 512 512zM256 448l256 256v-192h256v-128h-256v-192l-256 256z" />
<glyph unicode="&#xe94a;" glyph-name="arrow-left-alt2" d="M512-64c282.752 0 512 229.248 512 512s-229.248 512-512 512-512-229.248-512-512 229.248-512 512-512zM320 576v-64h512v-128h-512v-64l-128 128 128 128z" />
<glyph unicode="&#xe94b;" glyph-name="arrow-right3" d="M0 320h512l-192-192 192-192 512 512-512 512-192-192 192-192h-512z" />
<glyph unicode="&#xe94c;" glyph-name="arrow-right-alt1" d="M0 448c0-282.752 229.248-512 512-512 282.784 0 512 229.248 512 512 0 282.784-229.216 512-512 512-282.752 0-512-229.216-512-512zM768 448l-256-256v192h-256v128h256v192l256-256z" />
<glyph unicode="&#xe94d;" glyph-name="arrow-right-alt2" d="M512 960c-282.752 0-512-229.248-512-512s229.248-512 512-512 512 229.248 512 512-229.248 512-512 512zM704 320v64h-512v128h512v64l128-128-128-128z" />
<glyph unicode="&#xe94e;" glyph-name="arrow-up3" d="M640-64v512l192-192 192 192-512 512-512-512 192-192 192 192v-512z" />
<glyph unicode="&#xe94f;" glyph-name="arrow-up-alt1" d="M512-64c282.752 0 512 229.248 512 512 0 282.784-229.248 512-512 512-282.784 0-512-229.216-512-512 0-282.752 229.216-512 512-512zM512 704l256-256h-192v-256h-128v256h-192l256 256z" />
<glyph unicode="&#xe950;" glyph-name="arrow-up-alt2" d="M0 448c0-282.752 229.248-512 512-512s512 229.248 512 512-229.248 512-512 512-512-229.248-512-512zM640 640h-64v-512h-128v512h-64l128 128 128-128z" />
<glyph unicode="&#xe951;" glyph-name="arrow-down3" d="M384 960v-512l-192 192-192-192 512-512 512 512-192 192-192-192v512z" />
<glyph unicode="&#xe952;" glyph-name="arrow-down-alt1" d="M512 960c-282.752 0-512-229.248-512-512 0-282.784 229.248-512 512-512 282.784 0 512 229.216 512 512 0 282.752-229.216 512-512 512zM512 192l-256 256h192v256h128v-256h192l-256-256z" />
<glyph unicode="&#xe953;" glyph-name="arrow-down-alt2" d="M1024 448c0 282.752-229.248 512-512 512s-512-229.248-512-512 229.248-512 512-512 512 229.248 512 512zM384 256h64v512h128v-512h64l-128-128-128 128z" />
<glyph unicode="&#xe954;" glyph-name="cd" d="M512 960c-282.752 0-512-229.248-512-512s229.248-512 512-512 512 229.248 512 512-229.248 512-512 512zM512.992 322.112c-70.016 0-126.88 56.736-126.88 126.88 0 70.24 56.864 127.008 126.88 127.008 70.272 0 127.008-56.736 127.008-127.008 0-70.112-56.736-126.88-127.008-126.88z" />
<glyph unicode="&#xe955;" glyph-name="steering-wheel" d="M512 960c-282.752 0-512-229.248-512-512s229.248-512 512-512 512 229.248 512 512-229.248 512-512 512zM512 832c166.624 0 307.36-107.328 360.512-256h-721.024c53.152 148.672 193.888 256 360.512 256zM512 384c-35.36 0-64 28.64-64 64s28.64 64 64 64 64-28.64 64-64-28.64-64-64-64zM128 448c174.88 0 316.512-168.512 319.488-377.504-180.992 31.008-319.488 187.872-319.488 377.504zM576.512 70.496c2.976 208.992 144.608 377.504 319.488 377.504 0-189.632-138.496-346.496-319.488-377.504z" />
<glyph unicode="&#xe956;" glyph-name="microphone" horiz-adv-x="768" d="M384 448c70.752 0 128 57.312 128 128v256c0 70.688-57.248 128-128 128s-128-57.312-128-128v-256c0-70.688 57.248-128 128-128zM512 64h-64v134.496c181.248 30.624 320 187.68 320 377.504v62.016c0 35.36-28.64 64-64 64s-64-28.64-64-64v-62.016c0-141.184-114.752-256-256-256s-256 114.816-256 256v62.016c0 35.36-28.64 64-64 64s-64-28.64-64-64v-62.016c0-189.824 138.752-346.88 320-377.504v-134.496h-64c-70.752 0-128-57.248-128-128h512c0 70.752-57.248 128-128 128z" />
<glyph unicode="&#xe957;" glyph-name="headphones2" d="M960 384h-64v128c0 212-172 384-384 384s-384-172-384-384v-128h-64c-35.36 0-64-28.64-64-64v-256c0-35.36 28.64-64 64-64h192v512c0 141.248 114.752 256 256 256s256-114.752 256-256v-512h192c35.36 0 64 28.64 64 64v256c0 35.36-28.64 64-64 64z" />
<glyph unicode="&#xe958;" glyph-name="volume" d="M256 192c-141.376 0-256 114.624-256 256s114.624 256 256 256v-512zM384 704l256 128v-768l-256 128zM768.128 192.128v128c10.624 0 21.376 1.376 32.128 4 56.128 14.24 95.744 65.248 95.744 123.872s-39.616 109.504-96.384 123.872c-10.112 2.496-20.864 3.872-31.488 3.872v128c20.992 0 42.016-2.624 62.624-7.616 113.888-28.992 193.248-130.88 193.248-248.128 0-117.376-79.36-219.36-192.864-248.128-21.248-5.12-42.272-7.744-63.008-7.744v0z" />
<glyph unicode="&#xe959;" glyph-name="volume-mute3" d="M256 192c-141.376 0-256 114.624-256 256s114.624 256 256 256v-512zM384 704l256 128v-768l-256 128zM1024 384h-256v128h256z" />
<glyph unicode="&#xe95a;" glyph-name="play4" horiz-adv-x="768" d="M0 960l768-512-768-512z" />
<glyph unicode="&#xe95b;" glyph-name="pause3" horiz-adv-x="768" d="M0 960h256v-1024h-256zM512 960h256v-1024h-256z" />
<glyph unicode="&#xe95c;" glyph-name="stop3" d="M0 960h1024v-1024h-1024z" />
<glyph unicode="&#xe95d;" glyph-name="eject2" d="M0 320l512 640 512-640zM0 192h1022.624v-256h-1022.624z" />
<glyph unicode="&#xe95e;" glyph-name="first2" d="M1024-64l-768 512 768 512zM0 832h256v-768h-256z" />
<glyph unicode="&#xe95f;" glyph-name="last2" d="M0 960l768-512-768-512zM768 832h256v-768h-256z" />
<glyph unicode="&#xe960;" glyph-name="play-alt" d="M512 960c-282.752 0-512-229.248-512-512s229.248-512 512-512 512 229.248 512 512-229.248 512-512 512zM320 192v512l512.256-256-512.256-256z" />
<glyph unicode="&#xe961;" glyph-name="fullscreen-exit" d="M786.752 82.752l146.752-146.752 90.496 90.496-146.752 146.752 146.752 146.752h-384v-384zM0 576h384v384l-146.752-146.752-145.248 145.376-90.496-90.496 145.248-145.376zM0 26.496l90.496-90.496 146.752 146.752 146.752-146.752v384h-384l146.752-146.752zM640 576h384l-146.752 146.752 145.504 145.376-90.496 90.496-145.504-145.376-146.752 146.752z" />
<glyph unicode="&#xe962;" glyph-name="fullscreen-exit-alt" d="M896 320h-256v-256l82.752 82.752 210.752-210.752 90.496 90.496-210.752 210.752zM813.248 658.752l210.752 210.752-90.496 90.496-210.752-210.752-82.752 82.752v-256h256zM90.496 960l-90.496-90.496 210.752-210.752-82.752-82.752h256v256l-82.752-82.752zM210.752 237.248l-210.752-210.752 90.496-90.496 210.752 210.752 82.752-82.752v256h-256z" />
<glyph unicode="&#xe963;" glyph-name="fullscreen" d="M877.248 173.248l-146.752 146.752-90.496-90.496 146.752-146.752-146.752-146.752h384v384zM384 960h-384v-384l146.752 146.752 145.376-145.248 90.496 90.496-145.376 145.248zM384 229.504l-90.496 90.496-146.752-146.752-146.752 146.752v-384h384l-146.752 146.752zM1024 960h-384l146.752-146.752-145.376-145.248 90.496-90.496 145.376 145.248 146.752-146.752z" />
<glyph unicode="&#xe964;" glyph-name="fullscreen-alt" d="M941.248 109.248l-210.752 210.752-90.496-90.496 210.752-210.752-82.752-82.752h256v256zM82.752 786.752l210.752-210.752 90.496 90.496-210.752 210.752 82.752 82.752h-256v-256zM850.752 877.248l-210.752-210.752 90.496-90.496 210.752 210.752 82.752-82.752v256h-256zM384 229.504l-90.496 90.496-210.752-210.752-82.752 82.752v-256h256l-82.752 82.752z" />
<glyph unicode="&#xe965;" glyph-name="iphone" horiz-adv-x="768" d="M512 960h-256c-141.376 0-256-114.624-256-256v-512c0-141.376 114.624-256 256-256h256c141.376 0 256 114.624 256 256v512c0 141.376-114.624 256-256 256zM384-1.984c-36.448 0-65.984 29.504-65.984 65.984s29.568 65.984 65.984 65.984 65.984-29.504 65.984-65.984-29.536-65.984-65.984-65.984zM640 192h-512v512c0 70.496 57.44 128 128 128h256c70.496 0 128-57.504 128-128v-512z" />
<glyph unicode="&#xe966;" glyph-name="battery-empty" d="M1024 576h-128v64c0 35.136-28.736 64-64 64h-768c-35.264 0-64-28.864-64-64v-384c0-35.136 28.736-64 64-64h768c35.264 0 64 28.864 64 64v64h128v256zM768 320h-640v256h640v-256z" />
<glyph unicode="&#xe967;" glyph-name="battery-half" d="M1024 576h-128v64c0 35.2-28.736 64-64 64h-768c-35.264 0-64-28.8-64-64v-384c0-35.264 28.736-64 64-64h768c35.264 0 64 28.736 64 64v64h128v256zM768 320h-256v256h256v-256z" />
<glyph unicode="&#xe968;" glyph-name="battery-full" d="M896 576v64c0 35.2-28.8 64-64 64h-768c-35.2 0-64-28.8-64-64v-384c0-35.2 28.8-64 64-64h768c35.2 0 64 28.8 64 64v64h128v256h-128z" />
<glyph unicode="&#xe969;" glyph-name="battery-charging" d="M896 576v64c0 35.2-28.8 64-64 64h-768c-35.2 0-64-28.8-64-64v-128h203.168c26.4 74.528 97.28 128 180.832 128v-64h128v-64h-128v-128h128v-64h-128v-64c-83.552 0-154.464 53.472-180.832 128h-203.168v-128c0-35.2 28.8-64 64-64h768c35.2 0 64 28.8 64 64v64h128v256h-128z" />
<glyph unicode="&#xe96a;" glyph-name="compass3" d="M580 515.872c25.504-25.568 32.256-61.76 23.008-94.176l164.992 282.304-278.496-164.448c31.488 7.776 65.856 0.96 90.496-23.68zM444.256 380.128c-24.736 24.672-31.488 59.2-23.744 90.752l-164.512-278.88 282.624 165.12c-32.512-9.376-68.736-2.624-94.368 23.008zM512 832c211.744 0 384-172.256 384-384s-172.256-384-384-384-384 172.256-384 384 172.256 384 384 384M512 960c-282.752 0-512-229.248-512-512s229.248-512 512-512 512 229.248 512 512-229.248 512-512 512v0z" />
<glyph unicode="&#xe96b;" glyph-name="box" d="M0 576h1024v-640h-1024zM576 704h448l-128 256h-320zM448 960h-320l-128-256h448z" />
<glyph unicode="&#xe96c;" glyph-name="folder-stroke" d="M512 831.936v128.064h-512v-896c0-70.752 57.248-128 128-128h768c70.624 0 128 57.248 128 128v767.936h-512zM896 447.872v-383.872h-768v384l768-0.128zM896 576h-768v256l256-0.064v-127.936h512v-128z" />
<glyph unicode="&#xe96d;" glyph-name="folder-fill" d="M1024 0c0-35.36-28.64-64-64-64h-896c-35.36 0-64 28.64-64 64v576h1024v-576zM384 831.936v128.064h-384v-256h1024v127.936z" />
<glyph unicode="&#xe96e;" glyph-name="at" d="M955.008 192c43.872 75.36 68.992 162.496 68.992 256 0 282.752-229.248 512-512 512s-512-229.248-512-512 229.248-512 512-512c141.376 0 269.376 57.248 361.984 150.016l-90.624 90.624c-69.472-69.632-165.472-112.64-271.36-112.64-211.744 0-384 172.256-384 384s172.256 384 384 384 384-172.256 384-384c0-45.504-8.736-88.992-23.36-129.504l-1.024 1.504h-103.616v382.624h-256c-141.376 0-256-114.624-256-256s114.624-256 256-256c58.752 0 112.256 20.64 155.488 53.888 23.264-31.008 58.752-52.512 100.512-52.512h187.008zM640 511.744v-65.12c0-70.624-57.504-128-128-128s-128 57.376-128 128 57.504 128 128 128h128v-62.88z" />
<glyph unicode="&#xe96f;" glyph-name="ampersand" horiz-adv-x="596" d="M294.784-64c-75.488 0-151.008 28.736-208.64 86.112-114.88 115.136-114.88 302.368 0 417.248l259.616 254.016c14.752 14.88 23.264 35.264 23.264 57.12 0 21.76-8.512 42.24-23.744 57.76-31.744 31.744-83.488 31.616-115.488-0.128-31.52-31.744-31.52-83.488 0.224-115.264l-90.624-90.624c-81.6 81.76-81.6 214.624-0.096 296.384 81.984 81.888 214.752 81.76 296.448 0.128 39.744-39.616 61.504-92.384 61.504-148.384s-21.76-108.64-61.504-148.128l-259.552-253.888c-64.64-64.512-64.64-170.496 0.64-235.616 64.992-65.12 171.008-64.992 236.256 0 64.928 65.12 64.928 171.136 0 236.128l-45.504 45.248 139.2 139.136 90.496-90.496-53.504-53.504c72.512-113.984 59.264-267.488-40.256-367.008-57.536-57.504-133.248-86.24-208.736-86.24v0z" />
<glyph unicode="&#xe970;" glyph-name="info2" horiz-adv-x="512" d="M64 448c35.36 0 64-28.64 64-64v-256c0-35.36-28.64-64-64-64h-64v-128h512v128h-63.744c-35.264 0-64.256 28.64-64.256 64l-0.128 448h-383.872v-128h64zM128 832c0 70.692 57.308 128 128 128s128-57.308 128-128c0-70.692-57.308-128-128-128s-128 57.308-128 128z" />
<glyph unicode="&#xe971;" glyph-name="question-mark" horiz-adv-x="512" d="M179.2 0c0 35.346 28.654 64 64 64s64-28.654 64-64c0-35.346-28.654-64-64-64s-64 28.654-64 64zM245.632 128.736c-42.752 0-82.88 16.64-113.12 46.88s-46.88 70.368-46.88 113.12 16.64 82.88 46.88 113.12l214.016 214.016c24.224 24.192 37.472 56.32 37.472 90.496s-13.248 66.304-37.504 90.496c-49.888 49.92-131.072 50.016-180.928 0-24.256-24.192-37.568-56.288-37.568-90.496h-128c0 68.384 26.688 132.704 75.136 181.088 96.64 96.736 265.12 96.672 361.888-0.064 48.352-48.288 74.976-112.576 74.976-181.024 0-68.384-26.624-132.64-75.008-180.992l-213.984-214.016c-12.448-12.512-12.448-32.736 0-45.248 12.512-12.512 32.736-12.512 45.248 0 8.128 8.128 9.376 17.76 9.376 22.624h128c0-42.752-16.64-82.88-46.88-113.12s-70.368-46.88-113.12-46.88v0z" />
<glyph unicode="&#xe972;" glyph-name="pilcrow2" horiz-adv-x="768" d="M768 960h-512c-141.376 0-256-114.624-256-256s114.624-256 256-256v-512h128v896h128v-896h128v896h128v128z" />
<glyph unicode="&#xe973;" glyph-name="hash" horiz-adv-x="896" d="M896 576v128h-160.128l32 256h-128l-32-256h-255.936l32 256h-128l-32-256h-223.936v-128h207.936l-31.936-256h-176v-128h160l-32-256h128l32 256h255.936l-32-256h128.064l32 256h224v128h-208l31.872 256h176.128zM559.936 320h-255.936l31.936 256h255.936l-31.936-256z" />
<glyph unicode="&#xe974;" glyph-name="left-quote" d="M1024 64v384h-256c0 141.12 114.752 256 256 256v128c-211.744 0-384-172.256-384-384v-384h384zM384 64v384h-256c0 141.12 114.752 256 256 256v128c-211.744 0-384-172.256-384-384v-384h384z" />
<glyph unicode="&#xe975;" glyph-name="right-quote" d="M0 832v-384h256c0-141.12-114.752-256-256-256v-128c211.744 0 384 172.256 384 384v384h-384zM640 832v-384h256c0-141.12-114.752-256-256-256v-128c211.744 0 384 172.256 384 384v384h-384z" />
<glyph unicode="&#xe976;" glyph-name="left-quote-alt" d="M1024 64v768l-384-384v-384zM384 64v768l-384-384v-384z" />
<glyph unicode="&#xe977;" glyph-name="right-quote-alt" d="M0 832v-768l384 384v384zM640 832v-768l384 384v384z" />
<glyph unicode="&#xe978;" glyph-name="article" d="M1024 832h-1024v128h1024zM640 576h-640v128h640zM1024 192h-1024v128h1024zM768-64h-768v128h768zM1024 0c0-35.36-28.704-64-63.936-64-35.456 0-64.064 28.64-64.064 64s28.608 64 64.064 64c35.232 0 63.936-28.64 63.936-64z" />
<glyph unicode="&#xe979;" glyph-name="read-more" d="M1024 832h-1024v128h1024zM640 576h-640v128h640zM1024 320h-1024v128h1024zM0 0c0 35.346 28.654 64 64 64s64-28.654 64-64c0-35.346-28.654-64-64-64s-64 28.654-64 64zM512 0c0 35.346 28.654 64 64 64s64-28.654 64-64c0-35.346-28.654-64-64-64s-64 28.654-64 64zM256 0c0 35.346 28.654 64 64 64s64-28.654 64-64c0-35.346-28.654-64-64-64s-64 28.654-64 64z" />
<glyph unicode="&#xe97a;" glyph-name="list3" horiz-adv-x="1170" d="M0 886.862c0 40.393 32.745 73.138 73.138 73.138s73.138-32.745 73.138-73.138c0-40.393-32.745-73.138-73.138-73.138s-73.138 32.745-73.138 73.138zM0 594.272c0 40.393 32.745 73.138 73.138 73.138s73.138-32.745 73.138-73.138c0-40.393-32.745-73.138-73.138-73.138s-73.138 32.745-73.138 73.138zM0 301.718c0 40.393 32.745 73.138 73.138 73.138s73.138-32.745 73.138-73.138c0-40.393-32.745-73.138-73.138-73.138s-73.138 32.745-73.138 73.138zM0 9.13c0 40.393 32.745 73.138 73.138 73.138s73.138-32.745 73.138-73.138c0-40.393-32.745-73.138-73.138-73.138s-73.138 32.745-73.138 73.138zM292.59 960h877.622v-146.276h-877.622zM292.59 667.41h877.622v-146.276h-877.622zM292.59 374.858h877.622v-146.278h-877.622zM292.59 82.268h877.622v-146.278h-877.622z" />
<glyph unicode="&#xe97b;" glyph-name="list-nested" horiz-adv-x="1170" d="M0 886.858c0 40.396 32.747 73.143 73.143 73.143s73.143-32.747 73.143-73.143c0-40.396-32.747-73.143-73.143-73.143s-73.143 32.747-73.143 73.143zM292.572 960h877.714v-146.286h-877.714zM292.572 594.286c0 40.396 32.747 73.143 73.143 73.143s73.143-32.747 73.143-73.143c0-40.396-32.747-73.143-73.143-73.143s-73.143 32.747-73.143 73.143zM585.142 667.428h585.144v-146.286h-585.144zM292.572 9.142c0 40.396 32.747 73.143 73.143 73.143s73.143-32.747 73.143-73.143c0-40.396-32.747-73.143-73.143-73.143s-73.143 32.747-73.143 73.143zM585.142 82.286h585.144v-146.286h-585.144zM585.142 301.714c0 40.396 32.747 73.143 73.143 73.143s73.143-32.747 73.143-73.143c0-40.396-32.747-73.143-73.143-73.143s-73.143 32.747-73.143 73.143zM877.714 374.858h292.572v-146.286h-292.572z" />
<glyph unicode="&#xe97c;" glyph-name="book2" horiz-adv-x="896" d="M128 960c-70.4 0-128-57.6-128-128v-768c0-70.4 57.6-128 128-128h768v1024h-768zM768 64h-512v768h128v-256l128 128 128-128v256h128v-768z" />
<glyph unicode="&#xe97d;" glyph-name="book-alt" d="M1024 832h-128v128h-768c-70.4 0-128-57.6-128-128v-768c0-70.4 57.6-128 128-128h768v640h128l-128 128 128 128zM768 64h-512v768h512v-768zM384 704h256v-128h-256z" />
<glyph unicode="&#xe97e;" glyph-name="book-alt2" d="M512 768c0 0-128 128-512 128v-768c388 0 512-128 512-128s124 128 512 128v768c-384 0-512-128-512-128zM128 768c162.688-13.632 262.496-51.264 320-81.76v-515.488c-57.504 30.368-157.312 68-320 81.76v515.488zM896 252.512c-162.752-13.76-262.496-51.328-320-81.76v515.488c57.504 30.496 157.248 68.128 320 81.76v-515.488z" />
<glyph unicode="&#xe97f;" glyph-name="pen2" d="M948.992 884.992c-49.856 50.016-115.36 75.008-180.992 75.008-65.504 0-131.008-24.992-180.992-75.008l-586.016-585.984-0.992-363.008h361.984l587.008 587.008c100 100 100 261.984 0 361.984zM308.992 64h-52.992v128h-127.264l0.128 53.76 548.64 548.736 180.992-180.992-549.504-549.504z" />
<glyph unicode="&#xe980;" glyph-name="pen-alt-stroke" d="M948.992 884.992c-49.984 50.016-115.488 75.008-180.992 75.008s-131.008-24.992-180.992-75.008l-586.016-585.984-0.992-363.008h361.984l587.008 587.008c100 100 100 261.984 0 361.984zM308.992 64h-1.376c49.984 49.984 49.984 132 0 182.016-47.872 47.872-123.488 48.512-173.76 4.736l542.528 542.496 180.992-180.992-548.384-548.256z" />
<glyph unicode="&#xe981;" glyph-name="pen-alt-fill" d="M948.992 884.992c-99.872 100-262.112 100-361.984 0l-586.016-585.984-0.992-363.008h361.984l587.008 587.008c100 100 100 261.984 0 361.984zM307.616 64h-180.992v182.016c49.984 49.984 131.008 49.984 180.992 0s50.016-132.032 0-182.016zM856.128 613.504l-180.992 180.992c49.984 49.984 131.008 49.984 180.992 0s49.984-131.008 0-180.992z" />
<glyph unicode="&#xe982;" glyph-name="pen-alt2" horiz-adv-x="1022" d="M986.466 922.498c-49.982 49.982-131.004 49.982-180.986 0l-483.984-484.144c43.262-11.264 83.262-32.99 115.74-65.502 32.99-32.99 54.014-73.246 65.246-115.484l483.984 484.144c50.014 49.982 50.014 131.002 0 180.986zM346.742 101.37c49.982 49.982 49.982 131.004 0 180.986s-131.004 49.982-180.986 0l-165.756-346.356 346.742 165.37z" />
<glyph unicode="&#xe983;" glyph-name="brush" horiz-adv-x="1022" d="M986.432 922.496c-49.984 49.984-131.008 49.984-180.992 0l-364.8-364.736c84.512-30.112 151.008-96.64 180.992-181.12l364.8 364.864c50.016 49.984 50.016 131.008 0 180.992zM511.872 277.376c0 94.24-76.512 170.624-170.752 170.624s-170.624-76.384-170.624-170.624l0.128-0.128c-0.128-126.24-68.736-236.384-170.624-295.36l0.512-0.64c50.112-28.736 108.128-45.248 170.112-45.248 188.512 0 341.376 152.864 341.376 341.376h-0.128z" />
<glyph unicode="&#xe984;" glyph-name="brush-alt" horiz-adv-x="1022" d="M384 192c0 70.752-57.376 128-128 128-70.752 0-128-57.248-128-128v-0.256c0-94.624-51.488-177.12-128-221.376l0.512-0.384c37.504-21.6 80.992-33.984 127.488-33.984 141.376 0 256 114.624 256 256v0zM986.432 922.496c-49.984 49.984-131.008 49.984-180.992 0l-483.936-484c88.256-23.616 157.504-92.736 180.992-181.12l483.936 484.128c50.016 49.984 50.016 131.008 0 180.992z" />
<glyph unicode="&#xe985;" glyph-name="eyedropper2" horiz-adv-x="1022" d="M948.96 522.112c99.872 99.808 99.872 261.76 0 361.504-49.888 49.888-115.36 74.88-180.736 74.88-65.312 0-130.816-24.992-180.672-74.88l-18.88-18.88-95.168 95.264-90.24-90.304 95.264-95.2-478.528-478.816v-231.936l125.76-127.744h237.248l476.832 476.992 92-92.064 90.368 90.24-92.128 92.064 18.88 18.88zM330.24 84.256c1.504 48.512-15.264 97.12-52.128 134.016-33.888 33.984-78.112 50.624-122.624 52.128l413.408 413.536 180.576-180.448-419.232-419.232z" />
<glyph unicode="&#xe986;" glyph-name="layers-alt" horiz-adv-x="1022" d="M0 192l512.032-128 511.968 128v-128l-511.968-128-512.032 128zM0 448l512.032-128 511.968 128v-128l-511.968-128-512.032 128zM0 704l512.032-128 511.968 128v-128l-511.968-128-512.032 128zM0 960l512.032-128 511.968 128v-128l-511.968-128-512.032 128z" />
<glyph unicode="&#xe987;" glyph-name="layers" horiz-adv-x="1022" d="M0 256l512.032-128 511.968 128v-128l-511.968-128-512.032 128zM0 512l512.032-128 511.968 128v-128l-511.968-128-512.032 128zM0 768l512.032 128 511.968-128v-128l-511.968-128-512.032 128z" />
<glyph unicode="&#xe988;" glyph-name="image2" d="M256 192v256l128 128 128-128 256 256 256-256v-256zM128 64v896l-128-128v-896h896l128 128z" />
<glyph unicode="&#xe989;" glyph-name="camera2" d="M512 320c0 70.692 57.308 128 128 128s128-57.308 128-128c0-70.692-57.308-128-128-128s-128 57.308-128 128zM896 704l-105.248 212.576c-8.64 25.248-32.512 43.424-60.768 43.424h-175.744c-28.576 0-52.672-18.624-60.928-44.32l-109.184-211.68h-256.128c-70.688 0-128-57.312-128-128v-640h1024v640c0 70.688-57.248 128-128 128zM192 448c-35.36 0-64 28.64-64 64s28.64 64 64 64 64-28.64 64-64-28.64-64-64-64zM640 64c-141.376 0-256 114.624-256 256s114.624 256 256 256 256-114.624 256-256-114.624-256-256-256z" />
<glyph unicode="&#xe98a;" glyph-name="aperture" d="M677.504 512.64l182.112 309.248c-91.36 85.056-212.864 138.112-347.616 138.112-31.936 0-62.88-3.808-93.184-9.376l258.688-437.984zM638.496 320h367.36c10.656 41.12 18.144 83.488 18.144 128 0 123.936-45.76 236.064-119.136 324.64l-266.368-452.64zM528 640l-173.056 292.864c-144-46.688-260.448-153.536-316.928-292.864h489.984zM500.256 256l172.512-291.744c142.368 47.488 257.248 153.632 313.248 291.744h-485.76zM387.36 576h-369.248c-10.688-41.12-18.112-83.488-18.112-128 0-124.512 46.24-237.12 120.192-326.016l267.168 454.016zM349.376 385.248l-183.808-312.256c91.296-84.256 212.32-136.992 346.432-136.992 33.312 0 65.76 3.744 97.248 9.76l-259.872 439.488z" />
<glyph unicode="&#xe98b;" glyph-name="aperture-alt" d="M969.888 672.864l-319.136-319.136h363.744c5.76 30.784 9.504 62.016 9.504 94.272 0 81.056-20.512 156.736-54.112 224.864zM673.76 472.32l262.496 262.368c-62.496 92.128-155.008 160.672-262.496 196.672v-459.040zM535.936 286.24l262.56-262.624c92.256 62.368 160.864 155.008 196.864 262.624h-459.424zM606.176 584.192v366.304c-30.624 5.696-61.92 9.504-94.176 9.504-81.76 0-158.016-20.928-226.56-55.072l320.736-320.736zM417.824 308.736v-363.264c30.624-5.728 61.92-9.472 94.176-9.472 80.992 0 156.512 20.512 224.64 54.016l-318.816 318.72zM350.176 423.264l-262.176-262.144c62.368-92 154.816-160.512 262.176-196.512v458.656zM9.504 542.176c-5.696-30.624-9.504-61.92-9.504-94.176 0-81.248 20.64-156.992 54.24-225.12l319.328 319.328h-364.064zM223.872 871.008c-91.36-62.368-159.424-154.336-195.232-261.184h456.448l-261.216 261.184z" />
<glyph unicode="&#xe98c;" glyph-name="chart" horiz-adv-x="1022" d="M439.712 339.264l-320.256 320c-159.264-184.128-159.264-455.904 0-640l320.256 320zM640.032 826.944v-468.672l-331.264-331.392c74.496-55.616 164.992-90.88 264.992-90.88 248.736 0 450.24 201.248 450.24 449.888 0.032 225.856-167.424 408.864-383.968 441.056zM512 447.488v512.512c-139.488-8.64-265.504-62.016-367.264-145.184l367.264-367.328z" />
<glyph unicode="&#xe98d;" glyph-name="chart-alt" horiz-adv-x="960" d="M465.056 338.496l-338.496 338.496c-168.736-194.752-168.736-482.24 0-676.992l338.496 338.496zM512 384v576c-156.992-9.76-298.496-69.76-412.704-163.264l412.704-412.736zM576.064 831.488v-473.984l-332.256-332.256c74.496-54.752 164.256-89.248 263.52-89.248 250.176 0 452.672 202.496 452.672 452.256 0 226.496-167.264 409.984-383.936 443.232z" />
<glyph unicode="&#xe98e;" glyph-name="bars" d="M768 960h256v-1024h-256zM384 704h256v-768h-256zM0 448h256v-512h-256z" />
<glyph unicode="&#xe98f;" glyph-name="bars-alt" horiz-adv-x="896" d="M768 960h128v-1024h-128zM512 704h128v-768h-128zM256 448h128v-512h-128zM0 192h128v-256h-128z" />
<glyph unicode="&#xe990;" glyph-name="eye2" d="M512 832c-282.752 0-512-379.008-512-379.008s229.248-388.992 512-388.992 512 388.992 512 388.992-229.248 379.008-512 379.008zM512 192c-141.376 0-256 114.624-256 256s114.624 256 256 256 256-114.624 256-256-114.624-256-256-256zM384 448c0 70.692 57.308 128 128 128s128-57.308 128-128c0-70.692-57.308-128-128-128s-128 57.308-128 128z" />
<glyph unicode="&#xe991;" glyph-name="user2" horiz-adv-x="768" d="M384 448c-212 0-384-172-384-384 0-70.752 57.248-128 128-128h512c70.752 0 128 57.248 128 128 0 212-172 384-384 384zM192 768c0 106.039 85.961 192 192 192s192-85.961 192-192c0-106.039-85.961-192-192-192s-192 85.961-192 192z" />
<glyph unicode="&#xe992;" glyph-name="home4" d="M512 960l-512-512h128v-512h768v512h128l-512 512zM768 64h-192v192h-128v-192h-192v459.008l256 180.992 256-180.992v-459.008z" />
<glyph unicode="&#xe993;" glyph-name="clock3" d="M512 832c211.744 0 384-172.256 384-384s-172.256-384-384-384-384 172.256-384 384 172.256 384 384 384M512 960c-282.752 0-512-229.248-512-512s229.248-512 512-512 512 229.248 512 512-229.248 512-512 512v0zM685.504 365.504l-109.504 109.632v228.864h-128.736v-255.744c0-19.264 8.864-35.872 22.24-47.744l125.504-125.504 90.496 90.496z" />
<glyph unicode="&#xe994;" glyph-name="lock-stroke" horiz-adv-x="768" d="M448.128 960c-176.32 0-319.936-143.488-319.936-320v-64h-128.192v-448c0-105.76 86.24-192 191.936-192h384.064c106.016 0 192 86.24 192 192v512c0 176.512-143.488 320-319.872 320zM256.192 640c0 105.984 86.176 192 191.936 192 105.888 0 191.872-86.016 191.872-192v-64h-383.808v64zM576 64h-384.064c-35.264 0-64 28.736-64 64v320h512.064v-320c0-35.264-28.512-64-64-64zM448 256c0-35.264-28.736-64-64-64-35.488 0-64 28.736-64 64 0 35.488 28.512 64 64 64 35.264 0 64-28.512 64-64z" />
<glyph unicode="&#xe995;" glyph-name="lock-fill" horiz-adv-x="768" d="M448 960c-176.256 0-319.872-143.488-319.872-320v-64h-128.128v-448c0-105.888 86.112-192 192-192h384c105.888 0 192 86.112 192 192v512c0 176.512-143.616 320-320 320zM383.872 192c-35.232 0-63.872 28.64-63.872 64s28.64 64 63.872 64c35.36 0 64-28.64 64-64s-28.608-64-64-64zM640 576h-383.872v64c0 105.888 86.112 192 191.872 192 105.888 0 192-86.112 192-192v-64z" />
<glyph unicode="&#xe996;" glyph-name="unlock-stroke" horiz-adv-x="768" d="M448.128 960c-176.448 0-319.936-143.616-319.936-320h128c0 105.76 86.048 192 191.936 192s191.872-86.24 191.872-192v-64h-640v-448c0-105.984 86.112-192 191.936-192h384.064c105.888 0 192 86.016 192 192v512c0 176.384-143.488 320-319.872 320zM576 64h-384.064c-35.264 0-64 28.64-64 64v320h512.064v-320c0-35.36-28.736-64-64-64zM448 256c0-35.488-28.64-64-64-64s-64 28.512-64 64c0 35.264 28.64 64 64 64s64-28.736 64-64z" />
<glyph unicode="&#xe997;" glyph-name="unlock-fill" horiz-adv-x="768" d="M448.128 960c-176.512 0-319.872-143.488-319.872-320h127.872c0 105.888 86.016 192 192 192 105.76 0 191.872-86.112 191.872-192v-64h-640v-448c0-105.888 86.24-192 192-192h384c105.76 0 192 86.112 192 192v512c0 176.512-143.616 320-319.872 320zM384 192c-35.264 0-64 28.64-64 64s28.736 64 64 64c35.488 0 64-28.64 64-64s-28.512-64-64-64z" />
<glyph unicode="&#xe998;" glyph-name="tag-stroke" d="M0 960v-424.736l599.264-599.264c0 0 0 345.376 0 424.64 79.264 0 424.736 0 424.736 0l-599.264 599.36h-424.736zM377.504 846.016c24.736-24.64 252.128-252.256 371.264-371.36-99.264 0-263.488 0-263.488 0s0-164.256 0-263.264c-119.168 118.976-346.528 346.496-371.296 370.976 0 33.76 0 190.752 0 263.616 72.896 0.032 229.76 0.032 263.52 0.032zM374.368 684.384c0-54.496-44.256-98.752-98.624-98.752-54.496 0-98.752 44.256-98.752 98.752 0 54.368 44.256 98.496 98.752 98.496 54.368 0 98.624-44.128 98.624-98.496z" />
<glyph unicode="&#xe999;" glyph-name="tag-fill" d="M424.864 960h-424.864v-424.864l599.008-599.136v424.864h424.992l-599.136 599.136zM233.984 604.128c-67.264 0-121.76 54.496-121.76 121.76s54.496 121.76 121.76 121.76 121.76-54.496 121.76-121.76-54.496-121.76-121.76-121.76z" />
<glyph unicode="&#xe99a;" glyph-name="sun-stroke" horiz-adv-x="1022" d="M512.032 576c70.496 0 128-57.44 128-128s-57.504-128-128-128-128 57.44-128 128 57.504 128 128 128M512.032 704c-141.376 0-256-114.624-256-256s114.624-256 256-256c141.376 0 255.968 114.624 255.968 256s-114.592 256-255.968 256v0zM448 896c0 35.346 28.654 64 64 64s64-28.654 64-64c0-35.346-28.654-64-64-64s-64 28.654-64 64zM128 768c0 35.346 28.654 64 64 64s64-28.654 64-64c0-35.346-28.654-64-64-64s-64 28.654-64 64zM64 512c35.36 0 64-28.64 64-64 0-35.424-28.64-64-64-64s-64 28.576-64 64c0 35.36 28.64 64 64 64zM128 128c0 35.346 28.654 64 64 64s64-28.654 64-64c0-35.346-28.654-64-64-64s-64 28.654-64 64zM448 0c0 35.488 28.64 64 64 64 35.456 0 64-28.512 64-64 0-35.264-28.544-64-64-64-35.36 0-64 28.736-64 64zM768 128c0 35.346 28.654 64 64 64s64-28.654 64-64c0-35.346-28.654-64-64-64s-64 28.654-64 64zM960 384c-35.328 0-64 28.672-64 64 0 35.424 28.672 64 64 64s64-28.576 64-64c0-35.328-28.672-64-64-64zM768 768c0 35.346 28.654 64 64 64s64-28.654 64-64c0-35.346-28.654-64-64-64s-64 28.654-64 64z" />
<glyph unicode="&#xe99b;" glyph-name="sun-fill" horiz-adv-x="1022" d="M512.032 704c-141.376 0-256-114.624-256-256s114.624-256 256-256c141.376 0 255.968 114.624 255.968 256s-114.592 256-255.968 256v0zM448 896c0 35.346 28.654 64 64 64s64-28.654 64-64c0-35.346-28.654-64-64-64s-64 28.654-64 64zM128 768c0 35.346 28.654 64 64 64s64-28.654 64-64c0-35.346-28.654-64-64-64s-64 28.654-64 64zM64 512c35.36 0 64-28.64 64-64 0-35.424-28.64-64-64-64s-64 28.576-64 64c0 35.36 28.64 64 64 64zM128 128c0 35.346 28.654 64 64 64s64-28.654 64-64c0-35.346-28.654-64-64-64s-64 28.654-64 64zM448 0c0 35.488 28.64 64 64 64 35.456 0 64-28.512 64-64 0-35.264-28.544-64-64-64-35.36 0-64 28.736-64 64zM768 128c0 35.346 28.654 64 64 64s64-28.654 64-64c0-35.346-28.654-64-64-64s-64 28.654-64 64zM960 384c-35.328 0-64 28.672-64 64 0 35.424 28.672 64 64 64s64-28.576 64-64c0-35.328-28.672-64-64-64zM768 768c0 35.346 28.654 64 64 64s64-28.654 64-64c0-35.346-28.654-64-64-64s-64 28.654-64 64z" />
<glyph unicode="&#xe99c;" glyph-name="moon-stroke" d="M188.64 667.264c27.136-286.688 256-515.488 542.624-542.496-61.12-38.752-132.864-60.736-208-60.736-218.016-0.032-395.264 177.216-395.264 395.296 0 75.104 22.016 146.784 60.64 207.936M379.008 960c-218.368-63.008-379.008-262.048-379.008-500.672 0-289.088 234.24-523.328 523.264-523.328 238.624 0 437.76 160.736 500.736 379.008-69.76-40.256-149.504-64.992-235.744-64.992-262.016 0-474.24 212.448-474.24 474.304-0.032 86.24 24.736 165.984 64.992 235.68v0z" />
<glyph unicode="&#xe99d;" glyph-name="moon-fill" d="M788.256 250.112c-262.016 0-474.24 212.384-474.24 474.24 0 86.24 24.736 166.016 64.992 235.616-218.368-62.976-379.008-261.984-379.008-500.608 0-288.992 234.24-523.36 523.264-523.36 238.624 0 437.76 160.736 500.736 379.008-69.76-40.128-149.504-64.896-235.744-64.896z" />
<glyph unicode="&#xe99e;" glyph-name="cloud2" d="M768 640c-12.128 0-23.616-1.952-35.264-3.552-44.608 78.88-127.104 131.552-220.736 131.552-95.616 0-178.112-53.312-222.112-131.2-11.264 1.504-22.528 3.2-33.888 3.2-141.12 0-256-114.816-256-256 0-141.248 114.88-256 256-256h512c141.12 0 256 114.752 256 256 0 141.184-114.88 256-256 256zM768 256h-512c-70.624 0-128 57.504-128 128 0 70.176 62.112 124.32 128.128 126.24 0.256-30.176 5.504-59.808 16-87.808l119.872 44.864c-5.376 14.208-8 29.28-8 44.704 0 70.56 57.376 128 128 128 41.376 0 78.88-20.512 102.368-52.448-61.728-46.752-102.368-120.192-102.368-203.552h128c0 70.56 57.376 128 128 128s128-57.44 128-128c0-70.496-57.376-128-128-128z" />
<glyph unicode="&#xe99f;" glyph-name="rain" horiz-adv-x="1022" d="M767.936 768c-12 0-23.456-1.952-35.296-3.552-44.448 78.88-127.008 131.552-220.64 131.552-95.584 0-178.080-53.312-222.080-131.2-11.296 1.504-22.56 3.2-33.92 3.2-141.12 0-256-114.816-256-256s114.88-256 256-256h511.936c141.248 0 256 114.816 256 256s-114.752 256-256 256zM767.936 384h-511.936c-70.624 0-128 57.44-128 128 0 70.176 62.112 124.32 128.128 126.24 0.288-30.176 5.504-59.808 16-87.808l119.872 44.864c-5.376 14.208-8 29.28-8 44.704 0 70.56 57.376 128 128 128 41.376 0 78.88-20.512 102.368-52.448-61.696-46.752-102.368-120.192-102.368-203.552h128c0 70.56 57.44 128 127.936 128 70.752 0 128-57.44 128-128s-57.248-128-128-128zM104.992 17.984c-24-24-63.008-24-87.008 0s-24 63.008 0 87.008 174.016 87.008 174.016 87.008-63.008-150.016-87.008-174.016zM361.12 17.984c-24-24-62.88-24-87.008 0-24 24-24 63.008 0 87.008 24.128 24 174.016 87.008 174.016 87.008s-62.88-150.016-87.008-174.016zM616.96 17.984c-24-24-63.008-24-87.008 0s-24 63.008 0 87.008 173.984 87.008 173.984 87.008-62.976-150.016-86.976-174.016z" />
<glyph unicode="&#xe9a0;" glyph-name="umbrella" horiz-adv-x="1022" d="M512 960c-282.24 0-512-229.696-512-512h128c0 26.432 21.632 48 48 48 26.496 0 48-21.568 48-48h128c0 26.432 21.632 48 48 48 26.496 0 48-21.568 48-48v-320c0-35.264-28.64-64-64-64-35.264 0-64 28.736-64 64h-128c0-105.888 86.24-192 192-192 105.984 0 192 86.112 192 192v320c0 26.432 21.632 48 48 48 26.496 0 47.936-21.568 47.936-48h128c0 26.432 21.76 48 48 48 26.496 0 48-21.568 48-48h128c0 282.304-229.504 512-511.936 512z" />
<glyph unicode="&#xe9a1;" glyph-name="star" d="M708.384 332l315.616 244h-384l-128 384-128-384h-384l316-243.008-124-396.992 320.512 245.76 319.744-245.76z" />
<glyph unicode="&#xe9a2;" glyph-name="map-pin-stroke" horiz-adv-x="640" d="M320 832c51.264 0 99.488-20 135.744-56.32 36.256-36.192 56.256-84.416 56.256-135.68s-20-99.488-55.36-134.816c-5.376-5.312-71.616-71.2-136.64-174.112-64.736 102.752-130.752 168.384-135.744 173.248-36.256 36.192-56.256 84.416-56.256 135.68s20 99.488 56.256 135.744 84.48 56.256 135.744 56.256M320 960c-81.888 0-163.744-31.264-226.24-93.76-124.992-124.928-124.992-327.552 0-452.512 0 0.032 226.24-221.728 226.24-477.728 0 256 226.24 477.76 226.24 477.76 124.992 124.928 124.992 327.552 0 452.512-62.496 62.464-144.352 93.728-226.24 93.728v0zM256 640c0 35.346 28.654 64 64 64s64-28.654 64-64c0-35.346-28.654-64-64-64s-64 28.654-64 64z" />
<glyph unicode="&#xe9a3;" glyph-name="map-pin-fill" horiz-adv-x="640" d="M546.24 866.24c-124.992 124.992-327.488 124.992-452.512 0-124.992-124.928-124.992-327.616 0-452.48 0.032 0 226.272-221.76 226.272-477.76 0 256 226.24 477.76 226.24 477.76 125.024 124.864 125.024 327.552 0 452.48zM320 512c-70.752 0-128 57.248-128 128s57.248 128 128 128 128-57.248 128-128-57.248-128-128-128z" />
<glyph unicode="&#xe9a4;" glyph-name="map-pin-alt" horiz-adv-x="512" d="M256 960c-141.376 0-256-114.624-256-256s256-768 256-768 256 626.624 256 768-114.624 256-256 256zM256 576c-70.688 0-128 57.312-128 128s57.312 128 128 128 128-57.312 128-128-57.312-128-128-128z" />
<glyph unicode="&#xe9a5;" glyph-name="target2" d="M576.736 512.8h185.248c-23.488 90.752-94.496 161.824-185.248 185.248v-185.248zM576.736 383.2v-185.184c90.752 23.36 161.76 94.496 185.248 185.184h-185.248zM447.136 512.8v185.248c-90.752-23.424-161.888-94.496-185.248-185.248h185.248zM447.136 383.2h-185.248c23.36-90.688 94.496-161.824 185.248-185.184v185.184zM576.736 830.304c162.368-27.488 289.984-155.136 317.504-317.504h129.76c-29.632 233.952-213.248 417.632-447.264 447.2v-129.696zM129.632 512.8c27.488 162.4 155.104 290.016 317.504 317.504v129.696c-233.888-29.568-417.632-213.248-447.136-447.2h129.632zM447.136 65.76c-162.368 27.488-289.984 155.008-317.504 317.44h-129.632c29.504-233.952 213.248-417.696 447.136-447.2v129.76zM894.24 383.2c-27.488-162.432-155.136-289.952-317.504-317.44v-129.76c234.016 29.504 417.632 213.248 447.264 447.2h-129.76z" />
<glyph unicode="&#xe9a6;" glyph-name="download4" horiz-adv-x="768" d="M0 64h768v-128h-768zM512 384v576h-256v-576h-128l256-320 256 320z" />
<glyph unicode="&#xe9a7;" glyph-name="upload4" horiz-adv-x="768" d="M0 960h768v-128h-768zM256 512v-576h256v576h128l-256 320-256-320z" />
<glyph unicode="&#xe9a8;" glyph-name="cloud-download2" d="M768 832c-12 0-23.616-1.888-35.264-3.616-44.608 78.976-127.104 131.616-220.736 131.616-95.616 0-178.176-53.376-222.112-131.136-11.264 1.504-22.464 3.136-33.888 3.136-141.184 0-256-114.88-256-256s114.816-256 256-256h192v-192h-128l192-192 192 192h-128v192h192c141.248 0 256 114.88 256 256s-114.752 256-256 256zM768 448h-512c-70.56 0-128 57.376-128 128 0 70.112 62.176 124.384 128.128 126.24 0.256-30.112 5.504-59.872 16-87.872l119.872 44.992c-5.312 14.144-8 29.28-8 44.64 0 70.624 57.44 128 128 128 41.44 0 78.816-20.512 102.496-52.384-61.856-46.752-102.496-120.256-102.496-203.616h128c0 70.624 57.504 128 128 128s128-57.376 128-128-57.504-128-128-128z" />
<glyph unicode="&#xe9a9;" glyph-name="cloud-upload2" d="M768 832c-12 0-23.616-1.984-35.264-3.488-44.608 78.752-127.104 131.488-220.736 131.488-95.616 0-178.176-53.248-222.112-131.264-11.264 1.504-22.464 3.264-33.888 3.264-141.184 0-256-114.752-256-256s114.816-256 256-256h512c141.248 0 256 114.752 256 256s-114.752 256-256 256zM768 448h-512c-70.56 0-128 57.504-128 128 0 70.24 62.176 124.256 128.128 126.24 0.256-30.24 5.504-59.744 16-87.744l119.872 44.736c-5.312 14.272-8 29.28-8 44.768 0 70.496 57.44 128 128 128 41.44 0 78.816-20.512 102.496-52.512-61.856-46.752-102.496-120.128-102.496-203.488h128c0 70.496 57.504 128 128 128s128-57.504 128-128-57.504-128-128-128zM512 320l-192-192h128v-192h128v192h128z" />
<glyph unicode="&#xe9aa;" glyph-name="fork" horiz-adv-x="896" d="M640 960v-124c0-51.264-20-99.488-56.128-135.616l-362.112-360.128c-57.248-57.12-88.768-132.128-92.256-212.256h-129.504l192-192 192 192h-126.624c3.36 46.016 21.888 88.736 54.752 121.76l362.112 360c60.512 60.48 93.76 140.736 93.76 226.24v124h-128zM766.496 128c-3.488 80.128-35.136 155.136-92.384 212.512l-71.36 70.88-90.752-90.272 71.744-71.36c32.992-32.864 51.488-75.744 54.88-121.76h-126.624l192-192 192 192h-129.504z" />
<glyph unicode="&#xe9ab;" glyph-name="paperclip" d="M553.376 470.656l-90.528 90.528-128-128c-62.496-62.496-62.496-163.808 0-226.272 62.496-62.496 163.776-62.496 226.272 0l323.904 316.128c99.936 99.968 99.936 262.016 0 362.016-100 99.968-262.080 99.968-362.016 0l-355.872-348.16c-137.472-137.44-137.472-360.32 0-497.824 137.472-137.472 360.352-137.472 497.792 0l192 192-90.528 90.528-191.968-192c-87.456-87.424-229.312-87.424-316.8 0-87.456 87.424-87.456 229.312 0 316.768l355.872 348.192c49.984 49.984 131.040 49.984 180.992 0 50.016-50.016 50.016-131.104 0-181.024l-323.872-316.128c-12.512-12.512-32.736-12.512-45.248 0s-12.512 32.736 0 45.248l128 128z" />
<glyph unicode="&#xe9ac;" glyph-name="home" d="M1024 369.556l-512 397.426-512-397.428v162.038l512 397.426 512-397.428zM896 384v-384h-256v256h-256v-256h-256v384l384 288z" />
<glyph unicode="&#xe9ad;" glyph-name="home2" d="M512 928l-512-512 96-96 96 96v-416h256v192h128v-192h256v416l96-96 96 96-512 512zM512 512c-35.346 0-64 28.654-64 64s28.654 64 64 64c35.346 0 64-28.654 64-64s-28.654-64-64-64z" />
<glyph unicode="&#xe9ae;" glyph-name="home3" d="M1024 352l-192 192v288h-128v-160l-192 192-512-512v-32h128v-320h320v192h128v-192h320v320h128z" />
<glyph unicode="&#xe9af;" glyph-name="office" d="M0-64h512v1024h-512v-1024zM320 832h128v-128h-128v128zM320 576h128v-128h-128v128zM320 320h128v-128h-128v128zM64 832h128v-128h-128v128zM64 576h128v-128h-128v128zM64 320h128v-128h-128v128zM576 640h448v-64h-448zM576-64h128v256h192v-256h128v576h-448z" />
<glyph unicode="&#xe9b0;" glyph-name="newspaper" d="M896 704v128h-896v-704c0-35.346 28.654-64 64-64h864c53.022 0 96 42.978 96 96v544h-128zM832 128h-768v640h768v-640zM128 640h640v-64h-640zM512 512h256v-64h-256zM512 384h256v-64h-256zM512 256h192v-64h-192zM128 512h320v-320h-320z" />
<glyph unicode="&#xe9b1;" glyph-name="pencil" d="M864 960c88.364 0 160-71.634 160-160 0-36.020-11.91-69.258-32-96l-64-64-224 224 64 64c26.742 20.090 59.978 32 96 32zM64 224l-64-288 288 64 592 592-224 224-592-592zM715.578 596.422l-448-448-55.156 55.156 448 448 55.156-55.156z" />
<glyph unicode="&#xe9b2;" glyph-name="pencil2" d="M384 320l128 64 448 448-64 64-448-448-64-128zM289.3 92.902c-31.632 66.728-65.666 100.762-132.396 132.394l99.096 272.792 128 77.912 384 384h-192l-384-384-192-640 640 192 384 384v192l-384-384-77.912-128z" />
<glyph unicode="&#xe9b3;" glyph-name="quill" d="M0-64c128 384 463 1024 1024 1024-263-211-384-704-576-704s-192 0-192 0l-192-320h-64z" />
<glyph unicode="&#xe9b4;" glyph-name="pen" d="M1018.17 668.11l-286.058 286.058c-9.334 9.334-21.644 7.234-27.356-4.666l-38.354-79.904 267.198-267.198 79.904 38.354c11.9 5.712 14 18.022 4.666 27.356zM615.384 824.616l-263.384-21.95c-17.5-2.166-32.080-5.898-37.090-28.752-0.006-0.024-0.012-0.042-0.018-0.066-71.422-343.070-314.892-677.848-314.892-677.848l57.374-57.374 271.986 271.99c-5.996 12.53-9.36 26.564-9.36 41.384 0 53.020 42.98 96 96 96s96-42.98 96-96-42.98-96-96-96c-14.82 0-28.852 3.364-41.384 9.36l-271.988-271.986 57.372-57.374c0 0 334.778 243.47 677.848 314.892 0.024 0.006 0.042 0.012 0.066 0.018 22.854 5.010 26.586 19.59 28.752 37.090l21.95 263.384-273.232 273.232z" />
<glyph unicode="&#xe9b5;" glyph-name="blog" d="M384 960v-96c73.482 0 144.712-14.37 211.716-42.71 64.768-27.394 122.958-66.632 172.948-116.624s89.228-108.18 116.624-172.948c28.342-67.004 42.712-138.238 42.712-211.718h96c0 353.46-286.54 640-640 640zM384 768v-96c94.022 0 182.418-36.614 248.9-103.098 66.486-66.484 103.1-154.878 103.1-248.902h96c0 247.422-200.576 448-448 448zM480 576l-64-64-224-64-192-416 25.374-25.374 232.804 232.804c-1.412 5.286-2.178 10.84-2.178 16.57 0 35.346 28.654 64 64 64s64-28.654 64-64-28.654-64-64-64c-5.732 0-11.282 0.764-16.568 2.178l-232.804-232.804 25.372-25.374 416 192 64 224 64 64-160 160z" />
<glyph unicode="&#xe9b6;" glyph-name="eyedropper" d="M986.51 922.51c-49.988 49.986-131.032 49.986-181.020 0l-172.118-172.118-121.372 121.372-135.764-135.764 106.426-106.426-472.118-472.118c-8.048-8.048-11.468-18.958-10.3-29.456h-0.244v-160c0-17.674 14.328-32 32-32h160c0 0 2.664 0 4 0 9.212 0 18.426 3.516 25.456 10.544l472.118 472.118 106.426-106.426 135.764 135.764-121.372 121.372 172.118 172.118c49.986 49.988 49.986 131.032 0 181.020zM173.090 0h-109.090v109.090l469.574 469.572 109.088-109.088-469.572-469.574z" />
<glyph unicode="&#xe9b7;" glyph-name="droplet" d="M864.626 486.838c-65.754 183.44-205.11 348.15-352.626 473.162-147.516-125.012-286.87-289.722-352.626-473.162-40.664-113.436-44.682-236.562 12.584-345.4 65.846-125.14 198.632-205.438 340.042-205.438s274.196 80.298 340.040 205.44c57.27 108.838 53.25 231.962 12.586 345.398zM738.764 201.044c-43.802-83.252-132.812-137.044-226.764-137.044-55.12 0-108.524 18.536-152.112 50.652 13.242-1.724 26.632-2.652 40.112-2.652 117.426 0 228.668 67.214 283.402 171.242 44.878 85.292 40.978 173.848 23.882 244.338 14.558-28.15 26.906-56.198 36.848-83.932 22.606-63.062 40.024-156.34-5.368-242.604z" />
<glyph unicode="&#xe9b8;" glyph-name="paint-format" d="M1024 384v384h-192v64c0 35.2-28.8 64-64 64h-704c-35.2 0-64-28.8-64-64v-192c0-35.2 28.8-64 64-64h704c35.2 0 64 28.8 64 64v64h128v-256h-576v-128h-32c-17.674 0-32-14.326-32-32v-320c0-17.674 14.326-32 32-32h128c17.674 0 32 14.326 32 32v320c0 17.674-14.326 32-32 32h-32v64h576zM768 768h-704v64h704v-64z" />
<glyph unicode="&#xe9b9;" glyph-name="image" d="M959.884 832c0.040-0.034 0.082-0.076 0.116-0.116v-767.77c-0.034-0.040-0.076-0.082-0.116-0.116h-895.77c-0.040 0.034-0.082 0.076-0.114 0.116v767.772c0.034 0.040 0.076 0.082 0.114 0.114h895.77zM960 896h-896c-35.2 0-64-28.8-64-64v-768c0-35.2 28.8-64 64-64h896c35.2 0 64 28.8 64 64v768c0 35.2-28.8 64-64 64v0zM832 672c0-53.020-42.98-96-96-96s-96 42.98-96 96 42.98 96 96 96 96-42.98 96-96zM896 128h-768v128l224 384 256-320h64l224 192z" />
<glyph unicode="&#xe9ba;" glyph-name="images" horiz-adv-x="1152" d="M1088 832h-64v64c0 35.2-28.8 64-64 64h-896c-35.2 0-64-28.8-64-64v-768c0-35.2 28.8-64 64-64h64v-64c0-35.2 28.8-64 64-64h896c35.2 0 64 28.8 64 64v768c0 35.2-28.8 64-64 64zM128 768v-640h-63.886c-0.040 0.034-0.082 0.076-0.114 0.116v767.77c0.034 0.040 0.076 0.082 0.114 0.114h895.77c0.040-0.034 0.082-0.076 0.116-0.116v-63.884h-768c-35.2 0-64-28.8-64-64v0zM1088 0.116c-0.034-0.040-0.076-0.082-0.116-0.116h-895.77c-0.040 0.034-0.082 0.076-0.114 0.116v767.77c0.034 0.040 0.076 0.082 0.114 0.114h895.77c0.040-0.034 0.082-0.076 0.116-0.116v-767.768zM960 608c0-53.020-42.98-96-96-96s-96 42.98-96 96 42.98 96 96 96 96-42.98 96-96zM1024 64h-768v128l224 384 256-320h64l224 192z" />
<glyph unicode="&#xe9bb;" glyph-name="camera" d="M304 352c0-114.876 93.124-208 208-208s208 93.124 208 208-93.124 208-208 208-208-93.124-208-208zM960 704h-224c-16 64-32 128-96 128h-256c-64 0-80-64-96-128h-224c-35.2 0-64-28.8-64-64v-576c0-35.2 28.8-64 64-64h896c35.2 0 64 28.8 64 64v576c0 35.2-28.8 64-64 64zM512 68c-156.85 0-284 127.148-284 284 0 156.85 127.15 284 284 284 156.852 0 284-127.15 284-284 0-156.852-127.146-284-284-284zM960 512h-128v64h128v-64z" />
<glyph unicode="&#xe9bc;" glyph-name="headphones" d="M288 384h-64v-448h64c17.6 0 32 14.4 32 32v384c0 17.6-14.4 32-32 32zM736 384c-17.602 0-32-14.4-32-32v-384c0-17.6 14.398-32 32-32h64v448h-64zM1024 448c0 282.77-229.23 512-512 512s-512-229.23-512-512c0-61.412 10.83-120.29 30.656-174.848-19.478-33.206-30.656-71.87-30.656-113.152 0-112.846 83.448-206.188 192-221.716v443.418c-31.914-4.566-61.664-15.842-87.754-32.378-5.392 26.718-8.246 54.364-8.246 82.676 0 229.75 186.25 416 416 416s416-186.25 416-416c0-28.314-2.83-55.968-8.22-82.696-26.1 16.546-55.854 27.848-87.78 32.418v-443.44c108.548 15.532 192 108.874 192 221.714 0 41.274-11.178 79.934-30.648 113.138 19.828 54.566 30.648 113.452 30.648 174.866z" />
<glyph unicode="&#xe9bd;" glyph-name="music" d="M960 960h64v-736c0-88.366-100.29-160-224-160s-224 71.634-224 160c0 88.368 100.29 160 224 160 62.684 0 119.342-18.4 160-48.040v368.040l-512-113.778v-494.222c0-88.366-100.288-160-224-160s-224 71.634-224 160c0 88.368 100.288 160 224 160 62.684 0 119.342-18.4 160-48.040v624.040l576 128z" />
<glyph unicode="&#xe9be;" glyph-name="play" d="M981.188 799.892c-143.632 20.65-302.332 32.108-469.186 32.108-166.86 0-325.556-11.458-469.194-32.108-27.53-107.726-42.808-226.75-42.808-351.892 0-125.14 15.278-244.166 42.808-351.89 143.638-20.652 302.336-32.11 469.194-32.11 166.854 0 325.552 11.458 469.186 32.11 27.532 107.724 42.812 226.75 42.812 351.89 0 125.142-15.28 244.166-42.812 351.892zM384.002 256v384l320-192-320-192z" />
<glyph unicode="&#xe9bf;" glyph-name="film" d="M0 832v-768h1024v768h-1024zM192 128h-128v128h128v-128zM192 384h-128v128h128v-128zM192 640h-128v128h128v-128zM768 128h-512v640h512v-640zM960 128h-128v128h128v-128zM960 384h-128v128h128v-128zM960 640h-128v128h128v-128zM384 640v-384l256 192z" />
<glyph unicode="&#xe9c0;" glyph-name="video-camera" d="M384 672c0 88.366 71.634 160 160 160s160-71.634 160-160c0-88.366-71.634-160-160-160s-160 71.634-160 160zM0 672c0 88.366 71.634 160 160 160s160-71.634 160-160c0-88.366-71.634-160-160-160s-160 71.634-160 160zM768 352v96c0 35.2-28.8 64-64 64h-640c-35.2 0-64-28.8-64-64v-320c0-35.2 28.8-64 64-64h640c35.2 0 64 28.8 64 64v96l256-160v448l-256-160zM640 192h-512v192h512v-192z" />
<glyph unicode="&#xe9c1;" glyph-name="dice" d="M864 768h-512c-88 0-160-72-160-160v-512c0-88 72-160 160-160h512c88 0 160 72 160 160v512c0 88-72 160-160 160zM416 64c-53.020 0-96 42.98-96 96s42.98 96 96 96 96-42.98 96-96-42.98-96-96-96zM416 448c-53.020 0-96 42.98-96 96s42.98 96 96 96 96-42.98 96-96-42.98-96-96-96zM608 256c-53.020 0-96 42.98-96 96s42.98 96 96 96 96-42.98 96-96-42.98-96-96-96zM800 64c-53.020 0-96 42.98-96 96s42.98 96 96 96 96-42.98 96-96-42.98-96-96-96zM800 448c-53.020 0-96 42.98-96 96s42.98 96 96 96 96-42.98 96-96-42.98-96-96-96zM828.76 832c-14.93 72.804-79.71 128-156.76 128h-512c-88 0-160-72-160-160v-512c0-77.046 55.196-141.83 128-156.76v636.76c0 35.2 28.8 64 64 64h636.76z" />
<glyph unicode="&#xe9c2;" glyph-name="pacman" d="M964.73 781.196c-93.902 109.45-233.21 178.804-388.73 178.804-282.77 0-512-229.23-512-512s229.23-512 512-512c155.52 0 294.828 69.356 388.728 178.804l-324.728 333.196 324.73 333.196zM704 839.398c39.432 0 71.398-31.964 71.398-71.398 0-39.432-31.966-71.398-71.398-71.398s-71.398 31.966-71.398 71.398c0 39.432 31.966 71.398 71.398 71.398z" />
<glyph unicode="&#xe9c3;" glyph-name="spades" d="M817.57 611.85c-193.566 143.858-260.266 259.018-305.566 348.148v0c-0.004 0-0.004 0.002-0.004 0.002v-0.002c-45.296-89.13-112-204.292-305.566-348.148-330.036-245.286-19.376-587.668 253.758-399.224-17.796-116.93-78.53-202.172-140.208-238.882v-37.744h384.032v37.74c-61.682 36.708-122.41 121.954-140.212 238.884 273.136-188.446 583.8 153.94 253.766 399.226z" />
<glyph unicode="&#xe9c4;" glyph-name="clubs" d="M786.832 567.228c-59.032 0-112.086-24.596-149.852-64.694-15.996-16.984-43.762-37.112-73.8-54.81 14.11 53.868 58.676 121.7 89.628 151.456 39.64 38.17 63.984 91.83 63.984 151.5 0.006 114.894-91.476 208.096-204.788 209.32-113.32-1.222-204.796-94.426-204.796-209.318 0-59.672 24.344-113.33 63.986-151.5 30.954-29.756 75.52-97.588 89.628-151.456-30.042 17.7-57.806 37.826-73.8 54.81-37.768 40.098-90.82 64.694-149.85 64.694-114.386 0-207.080-93.664-207.080-209.328 0-115.638 92.692-209.338 207.080-209.338 59.042 0 112.082 25.356 149.85 65.452 16.804 17.872 46.444 40.138 78.292 58.632-3.002-147.692-73.532-256.168-145.318-298.906v-37.742h384.014v37.74c-71.792 42.736-142.32 151.216-145.32 298.906 31.852-18.494 61.488-40.768 78.292-58.632 37.766-40.094 90.808-65.452 149.852-65.452 114.386 0 207.078 93.7 207.078 209.338-0.002 115.664-92.692 209.328-207.080 209.328z" />
<glyph unicode="&#xe9c5;" glyph-name="diamonds" d="M512 960l-320-512 320-512 320 512z" />
<glyph unicode="&#xe9c6;" glyph-name="bullhorn" d="M1024 530.744c0 200.926-58.792 363.938-131.482 365.226 0.292 0.006 0.578 0.030 0.872 0.030h-82.942c0 0-194.8-146.336-475.23-203.754-8.56-45.292-14.030-99.274-14.030-161.502s5.466-116.208 14.030-161.5c280.428-57.418 475.23-203.756 475.23-203.756h82.942c-0.292 0-0.578 0.024-0.872 0.032 72.696 1.288 131.482 164.298 131.482 365.224zM864.824 220.748c-9.382 0-19.532 9.742-24.746 15.548-12.63 14.064-24.792 35.96-35.188 63.328-23.256 61.232-36.066 143.31-36.066 231.124 0 87.81 12.81 169.89 36.066 231.122 10.394 27.368 22.562 49.266 35.188 63.328 5.214 5.812 15.364 15.552 24.746 15.552 9.38 0 19.536-9.744 24.744-15.552 12.634-14.064 24.796-35.958 35.188-63.328 23.258-61.23 36.068-143.312 36.068-231.122 0-87.804-12.81-169.888-36.068-231.124-10.39-27.368-22.562-49.264-35.188-63.328-5.208-5.806-15.36-15.548-24.744-15.548zM251.812 530.744c0 51.95 3.81 102.43 11.052 149.094-47.372-6.554-88.942-10.324-140.34-10.324-67.058 0-67.058 0-67.058 0l-55.466-94.686v-88.17l55.46-94.686c0 0 0 0 67.060 0 51.398 0 92.968-3.774 140.34-10.324-7.236 46.664-11.048 97.146-11.048 149.096zM368.15 317.828l-127.998 24.51 81.842-321.544c4.236-16.634 20.744-25.038 36.686-18.654l118.556 47.452c15.944 6.376 22.328 23.964 14.196 39.084l-123.282 229.152zM864.824 411.27c-3.618 0-7.528 3.754-9.538 5.992-4.87 5.42-9.556 13.86-13.562 24.408-8.962 23.6-13.9 55.234-13.9 89.078s4.938 65.478 13.9 89.078c4.006 10.548 8.696 18.988 13.562 24.408 2.010 2.24 5.92 5.994 9.538 5.994 3.616 0 7.53-3.756 9.538-5.994 4.87-5.42 9.556-13.858 13.56-24.408 8.964-23.598 13.902-55.234 13.902-89.078 0-33.842-4.938-65.478-13.902-89.078-4.004-10.548-8.696-18.988-13.56-24.408-2.008-2.238-5.92-5.992-9.538-5.992z" />
<glyph unicode="&#xe9c7;" glyph-name="connection" horiz-adv-x="1280" d="M640 384c105.87 0 201.87-43.066 271.402-112.598l-90.468-90.468c-46.354 46.356-110.356 75.066-180.934 75.066s-134.578-28.71-180.934-75.066l-90.468 90.468c69.532 69.532 165.532 112.598 271.402 112.598zM187.452 452.548c120.88 120.88 281.598 187.452 452.548 187.452s331.668-66.572 452.55-187.452l-90.51-90.508c-96.706 96.704-225.28 149.96-362.040 149.96-136.762 0-265.334-53.256-362.038-149.962l-90.51 90.51zM988.784 825.562c106.702-45.132 202.516-109.728 284.782-191.996v0l-90.508-90.508c-145.056 145.056-337.92 224.942-543.058 224.942-205.14 0-398-79.886-543.058-224.942l-90.51 90.51c82.268 82.266 178.082 146.862 284.784 191.994 110.504 46.738 227.852 70.438 348.784 70.438s238.278-23.7 348.784-70.438zM576 64c0 35.346 28.654 64 64 64s64-28.654 64-64c0-35.346-28.654-64-64-64s-64 28.654-64 64z" />
<glyph unicode="&#xe9c8;" glyph-name="podcast" d="M1024 448c0 282.77-229.23 512-512 512s-512-229.23-512-512c0-220.054 138.836-407.664 333.686-480.068l-13.686-31.932h384l-13.686 31.932c194.85 72.404 333.686 260.014 333.686 480.068zM486.79 325.174c-22.808 9.788-38.79 32.436-38.79 58.826 0 35.346 28.654 64 64 64s64-28.654 64-64c0-26.39-15.978-49.044-38.786-58.834l-25.214 58.834-25.21-58.826zM538.268 322.708c58.092 12.118 101.732 63.602 101.732 125.292 0 70.694-57.306 128-128 128-70.692 0-128-57.306-128-128 0-61.692 43.662-113.122 101.76-125.228l-74.624-174.122c-91.23 39.15-155.136 129.784-155.136 235.35 0 141.384 114.616 268 256 268s256-126.616 256-268c0-105.566-63.906-196.2-155.136-235.35l-74.596 174.058zM688.448-27.708l-73.924 172.486c126.446 42.738 217.476 162.346 217.476 303.222 0 176.73-143.268 320-320 320-176.73 0-320-143.27-320-320 0-140.876 91.030-260.484 217.476-303.222l-73.924-172.486c-159.594 68.488-271.386 227.034-271.386 411.708 0 247.332 200.502 459.834 447.834 459.834s447.834-212.502 447.834-459.834c0-184.674-111.792-343.22-271.386-411.708z" />
<glyph unicode="&#xe9c9;" glyph-name="feed" d="M384 448c0 70.692 57.308 128 128 128s128-57.308 128-128c0-70.692-57.308-128-128-128s-128 57.308-128 128zM664.348 729.474c99.852-54.158 167.652-159.898 167.652-281.474s-67.8-227.316-167.652-281.474c44.066 70.126 71.652 170.27 71.652 281.474s-27.586 211.348-71.652 281.474zM288 448c0-111.204 27.584-211.348 71.652-281.474-99.852 54.16-167.652 159.898-167.652 281.474s67.8 227.314 167.652 281.474c-44.068-70.126-71.652-170.27-71.652-281.474zM96 448c0-171.9 54.404-326.184 140.652-431.722-142.302 90.948-236.652 250.314-236.652 431.722s94.35 340.774 236.652 431.722c-86.248-105.538-140.652-259.822-140.652-431.722zM787.352 879.72c142.298-90.946 236.648-250.312 236.648-431.72s-94.35-340.774-236.648-431.72c86.244 105.536 140.648 259.82 140.648 431.72s-54.404 326.184-140.648 431.72z" />
<glyph unicode="&#xe9ca;" glyph-name="mic" d="M480 256c88.366 0 160 71.634 160 160v384c0 88.366-71.634 160-160 160s-160-71.634-160-160v-384c0-88.366 71.636-160 160-160zM704 512v-96c0-123.71-100.29-224-224-224-123.712 0-224 100.29-224 224v96h-64v-96c0-148.238 112.004-270.3 256-286.22v-129.78h-128v-64h320v64h-128v129.78c143.994 15.92 256 137.982 256 286.22v96h-64z" />
<glyph unicode="&#xe9cb;" glyph-name="book" d="M896 832v-832h-672c-53.026 0-96 42.98-96 96s42.974 96 96 96h608v768h-640c-70.398 0-128-57.6-128-128v-768c0-70.4 57.602-128 128-128h768v896h-64zM224.056 128v0c-0.018-0.002-0.038 0-0.056 0-17.672 0-32-14.326-32-32s14.328-32 32-32c0.018 0 0.038 0.002 0.056 0.002v-0.002h607.89v64h-607.89z" />
<glyph unicode="&#xe9cc;" glyph-name="books" horiz-adv-x="1152" d="M224 832h-192c-17.6 0-32-14.4-32-32v-704c0-17.6 14.4-32 32-32h192c17.6 0 32 14.4 32 32v704c0 17.6-14.4 32-32 32zM192 640h-128v64h128v-64zM544 832h-192c-17.6 0-32-14.4-32-32v-704c0-17.6 14.4-32 32-32h192c17.6 0 32 14.4 32 32v704c0 17.6-14.4 32-32 32zM512 640h-128v64h128v-64zM765.088 782.52l-171.464-86.394c-15.716-7.918-22.096-27.258-14.178-42.976l287.978-571.548c7.918-15.718 27.258-22.098 42.976-14.178l171.464 86.392c15.716 7.92 22.096 27.26 14.178 42.974l-287.978 571.55c-7.92 15.718-27.26 22.1-42.976 14.18z" />
<glyph unicode="&#xe9cd;" glyph-name="library" horiz-adv-x="1088" d="M1024 0v64h-64v384h64v64h-192v-64h64v-384h-192v384h64v64h-192v-64h64v-384h-192v384h64v64h-192v-64h64v-384h-192v384h64v64h-192v-64h64v-384h-64v-64h-64v-64h1088v64h-64zM512 960h64l512-320v-64h-1088v64l512 320z" />
<glyph unicode="&#xe9ce;" glyph-name="file-text" d="M864 960h-768c-52.8 0-96-43.2-96-96v-832c0-52.8 43.2-96 96-96h768c52.8 0 96 43.2 96 96v832c0 52.8-43.2 96-96 96zM832 64h-704v768h704v-768zM256 512h448v-64h-448zM256 384h448v-64h-448zM256 256h448v-64h-448zM256 640h448v-64h-448z" />
<glyph unicode="&#xe9cf;" glyph-name="profile" d="M864 960h-768c-52.8 0-96-43.2-96-96v-832c0-52.8 43.2-96 96-96h768c52.8 0 96 43.2 96 96v832c0 52.8-43.2 96-96 96zM832 64h-704v768h704v-768zM256 384h448v-64h-448zM256 256h448v-64h-448zM320 672c0 53.019 42.981 96 96 96s96-42.981 96-96c0-53.019-42.981-96-96-96s-96 42.981-96 96zM480 576h-128c-52.8 0-96-28.8-96-64v-64h320v64c0 35.2-43.2 64-96 64z" />
<glyph unicode="&#xe9d0;" glyph-name="file-empty" d="M917.806 730.924c-22.212 30.292-53.174 65.7-87.178 99.704s-69.412 64.964-99.704 87.178c-51.574 37.82-76.592 42.194-90.924 42.194h-496c-44.112 0-80-35.888-80-80v-864c0-44.112 35.888-80 80-80h736c44.112 0 80 35.888 80 80v624c0 14.332-4.372 39.35-42.194 90.924zM785.374 785.374c30.7-30.7 54.8-58.398 72.58-81.374h-153.954v153.946c22.984-17.78 50.678-41.878 81.374-72.572zM896 16c0-8.672-7.328-16-16-16h-736c-8.672 0-16 7.328-16 16v864c0 8.672 7.328 16 16 16 0 0 495.956 0.002 496 0v-224c0-17.672 14.326-32 32-32h224v-624z" />
<glyph unicode="&#xe9d1;" glyph-name="files-empty" d="M917.806 602.924c-22.21 30.292-53.174 65.7-87.178 99.704s-69.412 64.964-99.704 87.178c-51.574 37.82-76.592 42.194-90.924 42.194h-368c-44.114 0-80-35.888-80-80v-736c0-44.112 35.886-80 80-80h608c44.112 0 80 35.888 80 80v496c0 14.332-4.372 39.35-42.194 90.924zM785.374 657.374c30.7-30.7 54.8-58.398 72.58-81.374h-153.954v153.946c22.982-17.78 50.678-41.878 81.374-72.572v0zM896 16c0-8.672-7.328-16-16-16h-608c-8.672 0-16 7.328-16 16v736c0 8.672 7.328 16 16 16 0 0 367.956 0.002 368 0v-224c0-17.672 14.324-32 32-32h224v-496zM602.924 917.804c-51.574 37.822-76.592 42.196-90.924 42.196h-368c-44.112 0-80-35.888-80-80v-736c0-38.632 27.528-70.958 64-78.39v814.39c0 8.672 7.328 16 16 16h486.876c-9.646 7.92-19.028 15.26-27.952 21.804z" />
<glyph unicode="&#xe9d2;" glyph-name="file-text2" d="M917.806 730.924c-22.212 30.292-53.174 65.7-87.178 99.704s-69.412 64.964-99.704 87.178c-51.574 37.82-76.592 42.194-90.924 42.194h-496c-44.112 0-80-35.888-80-80v-864c0-44.112 35.888-80 80-80h736c44.112 0 80 35.888 80 80v624c0 14.332-4.372 39.35-42.194 90.924zM785.374 785.374c30.7-30.7 54.8-58.398 72.58-81.374h-153.954v153.946c22.984-17.78 50.678-41.878 81.374-72.572zM896 16c0-8.672-7.328-16-16-16h-736c-8.672 0-16 7.328-16 16v864c0 8.672 7.328 16 16 16 0 0 495.956 0.002 496 0v-224c0-17.672 14.326-32 32-32h224v-624zM736 128h-448c-17.672 0-32 14.326-32 32s14.328 32 32 32h448c17.674 0 32-14.326 32-32s-14.326-32-32-32zM736 256h-448c-17.672 0-32 14.326-32 32s14.328 32 32 32h448c17.674 0 32-14.326 32-32s-14.326-32-32-32zM736 384h-448c-17.672 0-32 14.326-32 32s14.328 32 32 32h448c17.674 0 32-14.326 32-32s-14.326-32-32-32z" />
<glyph unicode="&#xe9d3;" glyph-name="file-picture" d="M832 64h-640v128l192 320 263-320 185 128v-256zM832 480c0-53.020-42.98-96-96-96-53.022 0-96 42.98-96 96s42.978 96 96 96c53.020 0 96-42.98 96-96zM917.806 730.924c-22.212 30.292-53.174 65.7-87.178 99.704s-69.412 64.964-99.704 87.178c-51.574 37.82-76.592 42.194-90.924 42.194h-496c-44.112 0-80-35.888-80-80v-864c0-44.112 35.888-80 80-80h736c44.112 0 80 35.888 80 80v624c0 14.332-4.372 39.35-42.194 90.924zM785.374 785.374c30.7-30.7 54.8-58.398 72.58-81.374h-153.954v153.946c22.984-17.78 50.678-41.878 81.374-72.572zM896 16c0-8.672-7.328-16-16-16h-736c-8.672 0-16 7.328-16 16v864c0 8.672 7.328 16 16 16 0 0 495.956 0.002 496 0v-224c0-17.672 14.326-32 32-32h224v-624z" />
<glyph unicode="&#xe9d4;" glyph-name="file-music" d="M917.806 730.924c-22.21 30.292-53.174 65.7-87.178 99.704s-69.412 64.964-99.704 87.178c-51.574 37.82-76.592 42.194-90.924 42.194h-496c-44.112 0-80-35.888-80-80v-864c0-44.112 35.886-80 80-80h736c44.112 0 80 35.888 80 80v624c0 14.332-4.372 39.35-42.194 90.924v0zM785.374 785.374c30.7-30.7 54.8-58.398 72.58-81.374h-153.954v153.946c22.982-17.78 50.678-41.878 81.374-72.572v0zM896 16c0-8.672-7.328-16-16-16h-736c-8.672 0-16 7.328-16 16v864c0 8.672 7.328 16 16 16 0 0 495.956 0.002 496 0v-224c0-17.672 14.324-32 32-32h224v-624zM756.288 568.748c-7.414 6.080-17.164 8.514-26.562 6.632l-320-64c-14.958-2.994-25.726-16.126-25.726-31.38v-236.876c-18.832 8.174-40.678 12.876-64 12.876-70.692 0-128-42.98-128-96s57.308-96 128-96 128 42.98 128 96v229.766l256 51.202v-133.842c-18.832 8.174-40.678 12.876-64 12.876-70.692 0-128-42.98-128-96s57.308-96 128-96 128 42.98 128 96v319.998c0 9.586-4.298 18.668-11.712 24.748z" />
<glyph unicode="&#xe9d5;" glyph-name="file-play" d="M384 576l320-224-320-224v448zM917.806 730.924c-22.212 30.292-53.174 65.7-87.178 99.704s-69.412 64.964-99.704 87.178c-51.574 37.82-76.592 42.194-90.924 42.194h-496c-44.112 0-80-35.888-80-80v-864c0-44.112 35.888-80 80-80h736c44.112 0 80 35.888 80 80v624c0 14.332-4.372 39.35-42.194 90.924zM785.374 785.374c30.7-30.7 54.8-58.398 72.58-81.374h-153.954v153.946c22.984-17.78 50.678-41.878 81.374-72.572zM896 16c0-8.672-7.328-16-16-16h-736c-8.672 0-16 7.328-16 16v864c0 8.672 7.328 16 16 16 0 0 495.956 0.002 496 0v-224c0-17.672 14.326-32 32-32h224v-624z" />
<glyph unicode="&#xe9d6;" glyph-name="file-video" d="M917.806 730.924c-22.208 30.292-53.174 65.7-87.178 99.704s-69.412 64.964-99.704 87.178c-51.574 37.82-76.594 42.194-90.924 42.194h-496c-44.112 0-80-35.888-80-80v-864c0-44.112 35.882-80 80-80h736c44.112 0 80 35.888 80 80v624c0 14.332-4.372 39.35-42.194 90.924v0 0zM785.374 785.374c30.7-30.7 54.8-58.398 72.58-81.374h-153.954v153.946c22.98-17.78 50.678-41.878 81.374-72.572v0 0zM896 16c0-8.672-7.328-16-16-16h-736c-8.672 0-16 7.328-16 16v864c0 8.672 7.328 16 16 16 0 0 495.956 0.002 496 0v-224c0-17.672 14.32-32 32-32h224v-624zM256 448h320v-320h-320v320zM576 320l192 128v-320l-192 128z" />
<glyph unicode="&#xe9d7;" glyph-name="file-zip" d="M917.806 730.924c-22.208 30.292-53.174 65.7-87.178 99.704s-69.412 64.964-99.704 87.178c-51.574 37.82-76.592 42.194-90.924 42.194h-496c-44.112 0-80-35.888-80-80v-864c0-44.112 35.884-80 80-80h736c44.112 0 80 35.888 80 80v624c0 14.332-4.372 39.35-42.194 90.924v0 0zM785.374 785.374c30.7-30.7 54.8-58.398 72.58-81.374h-153.954v153.946c22.98-17.78 50.678-41.878 81.374-72.572v0 0zM896 16c0-8.672-7.328-16-16-16h-736c-8.672 0-16 7.328-16 16v864c0 8.672 7.328 16 16 16 0 0 495.956 0.002 496 0v-224c0-17.672 14.322-32 32-32h224v-624zM256 896h128v-64h-128v64zM384 832h128v-64h-128v64zM256 768h128v-64h-128v64zM384 704h128v-64h-128v64zM256 640h128v-64h-128v64zM384 576h128v-64h-128v64zM256 512h128v-64h-128v64zM384 448h128v-64h-128v64zM256 112c0-26.4 21.6-48 48-48h160c26.4 0 48 21.6 48 48v160c0 26.4-21.6 48-48 48h-80v64h-128v-272zM448 192v-64h-128v64h128z" />
<glyph unicode="&#xe9d8;" glyph-name="copy" d="M640 704v256h-448l-192-192v-576h384v-256h640v768h-384zM192 869.49v-101.49h-101.49l101.49 101.49zM64 256v448h192v192h320v-192l-192-192v-256h-320zM576 613.49v-101.49h-101.49l101.49 101.49zM960 0h-512v448h192v192h320v-640z" />
<glyph unicode="&#xe9d9;" glyph-name="paste" d="M704 832h-128v64c0 35.2-28.8 64-64 64h-128c-35.204 0-64-28.8-64-64v-64h-128v-128h512v128zM512 832h-128v63.886c0.034 0.038 0.072 0.078 0.114 0.114h127.768c0.042-0.036 0.082-0.076 0.118-0.114v-63.886zM832 640v160c0 17.6-14.4 32-32 32h-64v-64h32v-128h-192l-192-192v-256h-256v576h32v64h-64c-17.602 0-32-14.4-32-32v-640c0-17.6 14.398-32 32-32h288v-192h640v704h-192zM576 549.49v-101.49h-101.49l101.49 101.49zM960 0h-512v384h192v192h320v-576z" />
<glyph unicode="&#xe9da;" glyph-name="stack" d="M1024 640l-512 256-512-256 512-256 512 256zM512 811.030l342.058-171.030-342.058-171.030-342.058 171.030 342.058 171.030zM921.444 499.278l102.556-51.278-512-256-512 256 102.556 51.278 409.444-204.722zM921.444 307.278l102.556-51.278-512-256-512 256 102.556 51.278 409.444-204.722z" />
<glyph unicode="&#xe9db;" glyph-name="folder" d="M448 832l128-128h448v-704h-1024v832z" />
<glyph unicode="&#xe9dc;" glyph-name="folder-open" d="M832 0l192 512h-832l-192-512zM128 576l-128-576v832h288l128-128h416v-128z" />
<glyph unicode="&#xe9dd;" glyph-name="folder-plus" d="M576 704l-128 128h-448v-832h1024v704h-448zM704 256h-128v-128h-128v128h-128v128h128v128h128v-128h128v-128z" />
<glyph unicode="&#xe9de;" glyph-name="folder-minus" d="M576 704l-128 128h-448v-832h1024v704h-448zM704 256h-384v128h384v-128z" />
<glyph unicode="&#xe9df;" glyph-name="folder-download" d="M576 704l-128 128h-448v-832h1024v704h-448zM512 96l-224 224h160v256h128v-256h160l-224-224z" />
<glyph unicode="&#xe9e0;" glyph-name="folder-upload" d="M576 704l-128 128h-448v-832h1024v704h-448zM512 480l224-224h-160v-256h-128v256h-160l224 224z" />
<glyph unicode="&#xe9e1;" glyph-name="price-tag" d="M976 960h-384c-26.4 0-63.274-15.274-81.942-33.942l-476.116-476.116c-18.668-18.668-18.668-49.214 0-67.882l412.118-412.118c18.668-18.668 49.214-18.668 67.882 0l476.118 476.118c18.666 18.666 33.94 55.54 33.94 81.94v384c0 26.4-21.6 48-48 48zM736 576c-53.020 0-96 42.98-96 96s42.98 96 96 96 96-42.98 96-96-42.98-96-96-96z" />
<glyph unicode="&#xe9e2;" glyph-name="price-tags" horiz-adv-x="1280" d="M1232 960h-384c-26.4 0-63.274-15.274-81.942-33.942l-476.116-476.116c-18.668-18.668-18.668-49.214 0-67.882l412.118-412.118c18.668-18.668 49.214-18.668 67.882 0l476.118 476.118c18.666 18.666 33.94 55.54 33.94 81.94v384c0 26.4-21.6 48-48 48zM992 576c-53.020 0-96 42.98-96 96s42.98 96 96 96 96-42.98 96-96-42.98-96-96-96zM128 416l544 544h-80c-26.4 0-63.274-15.274-81.942-33.942l-476.116-476.116c-18.668-18.668-18.668-49.214 0-67.882l412.118-412.118c18.668-18.668 49.214-18.668 67.882 0l30.058 30.058-416 416z" />
<glyph unicode="&#xe9e3;" glyph-name="barcode" d="M0 832h128v-640h-128zM192 832h64v-640h-64zM320 832h64v-640h-64zM512 832h64v-640h-64zM768 832h64v-640h-64zM960 832h64v-640h-64zM640 832h32v-640h-32zM448 832h32v-640h-32zM864 832h32v-640h-32zM0 128h64v-64h-64zM192 128h64v-64h-64zM320 128h64v-64h-64zM640 128h64v-64h-64zM960 128h64v-64h-64zM768 128h128v-64h-128zM448 128h128v-64h-128z" />
<glyph unicode="&#xe9e4;" glyph-name="qrcode" d="M320 896h-256v-256h256v256zM384 960v0-384h-384v384h384zM128 832h128v-128h-128zM960 896h-256v-256h256v256zM1024 960v0-384h-384v384h384zM768 832h128v-128h-128zM320 256h-256v-256h256v256zM384 320v0-384h-384v384h384zM128 192h128v-128h-128zM448 960h64v-64h-64zM512 896h64v-64h-64zM448 832h64v-64h-64zM512 768h64v-64h-64zM448 704h64v-64h-64zM512 640h64v-64h-64zM448 576h64v-64h-64zM448 448h64v-64h-64zM512 384h64v-64h-64zM448 320h64v-64h-64zM512 256h64v-64h-64zM448 192h64v-64h-64zM512 128h64v-64h-64zM448 64h64v-64h-64zM512 0h64v-64h-64zM960 448h64v-64h-64zM64 448h64v-64h-64zM128 512h64v-64h-64zM0 512h64v-64h-64zM256 512h64v-64h-64zM320 448h64v-64h-64zM384 512h64v-64h-64zM576 448h64v-64h-64zM640 512h64v-64h-64zM704 448h64v-64h-64zM768 512h64v-64h-64zM832 448h64v-64h-64zM896 512h64v-64h-64zM960 320h64v-64h-64zM576 320h64v-64h-64zM640 384h64v-64h-64zM704 320h64v-64h-64zM832 320h64v-64h-64zM896 384h64v-64h-64zM960 192h64v-64h-64zM576 192h64v-64h-64zM640 256h64v-64h-64zM768 256h64v-64h-64zM832 192h64v-64h-64zM896 256h64v-64h-64zM960 64h64v-64h-64zM640 128h64v-64h-64zM704 64h64v-64h-64zM768 128h64v-64h-64zM832 64h64v-64h-64zM640 0h64v-64h-64zM768 0h64v-64h-64zM896 0h64v-64h-64z" />
<glyph unicode="&#xe9e5;" glyph-name="ticket" d="M575.996 640l127.998-127.998-255.994-255.994-127.998 127.998zM1001.526 662.496l-73.516 73.516-32.008-32.008c-16.378-16.38-39.010-26.51-64-26.51-49.988 0-90.514 40.522-90.514 90.51 0 25.002 10.14 47.638 26.534 64.018l31.988 31.986-73.518 73.516c-29.968 29.968-79.008 29.968-108.976 0l-595.040-595.038c-29.966-29.968-29.966-79.010 0-108.976l73.52-73.518 31.962 31.964c16.382 16.406 39.030 26.552 64.044 26.552 49.988 0 90.51-40.524 90.51-90.51 0-25.006-10.14-47.64-26.534-64.022l-31.984-31.986 73.516-73.518c29.966-29.966 79.008-29.966 108.976 0l595.040 595.040c29.964 29.976 29.964 79.016 0 108.984zM448.002 128.004l-256 256 384 384 256-256-384-384z" />
<glyph unicode="&#xe9e6;" glyph-name="cart" d="M384 32c0-53.019-42.981-96-96-96s-96 42.981-96 96c0 53.019 42.981 96 96 96s96-42.981 96-96zM1024 32c0-53.019-42.981-96-96-96s-96 42.981-96 96c0 53.019 42.981 96 96 96s96-42.981 96-96zM1024 448v384h-768c0 35.346-28.654 64-64 64h-192v-64h128l48.074-412.054c-29.294-23.458-48.074-59.5-48.074-99.946 0-70.696 57.308-128 128-128h768v64h-768c-35.346 0-64 28.654-64 64 0 0.218 0.014 0.436 0.016 0.656l831.984 127.344z" />
<glyph unicode="&#xe9e7;" glyph-name="coin-dollar" d="M480 896c-265.096 0-480-214.904-480-480 0-265.098 214.904-480 480-480 265.098 0 480 214.902 480 480 0 265.096-214.902 480-480 480zM480 32c-212.078 0-384 171.922-384 384s171.922 384 384 384c212.078 0 384-171.922 384-384s-171.922-384-384-384zM512 448v128h128v64h-128v64h-64v-64h-128v-256h128v-128h-128v-64h128v-64h64v64h128.002l-0.002 256h-128zM448 448h-64v128h64v-128zM576.002 256h-64.002v128h64.002v-128z" />
<glyph unicode="&#xe9e8;" glyph-name="coin-euro" d="M480 896c-265.096 0-480-214.904-480-480s214.904-480 480-480c265.098 0 480 214.902 480 480s-214.902 480-480 480zM480 32c-212.078 0-384 171.922-384 384s171.922 384 384 384c212.076 0 384-171.922 384-384s-171.924-384-384-384zM670.824 315.66c-15.27 8.884-34.862 3.708-43.75-11.57-17.256-29.662-49.088-48.090-83.074-48.090h-128c-41.716 0-77.286 26.754-90.496 64h154.496c17.672 0 32 14.326 32 32s-14.328 32-32 32h-160v64h160c17.672 0 32 14.328 32 32s-14.328 32-32 32h-154.496c13.21 37.246 48.78 64 90.496 64h128c33.986 0 65.818-18.426 83.074-48.090 8.888-15.276 28.478-20.456 43.752-11.568 15.276 8.888 20.456 28.476 11.568 43.752-28.672 49.288-81.702 79.906-138.394 79.906h-128c-77.268 0-141.914-55.056-156.78-128h-35.22c-17.672 0-32-14.328-32-32s14.328-32 32-32h32v-64h-32c-17.672 0-32-14.326-32-32s14.328-32 32-32h35.22c14.866-72.944 79.512-128 156.78-128h128c56.692 0 109.72 30.62 138.394 79.91 8.888 15.276 3.708 34.864-11.57 43.75z" />
<glyph unicode="&#xe9e9;" glyph-name="coin-pound" d="M480 896c-265.096 0-480-214.904-480-480s214.904-480 480-480c265.098 0 480 214.902 480 480s-214.902 480-480 480zM480 32c-212.078 0-384 171.922-384 384s171.922 384 384 384c212.074 0 384-171.922 384-384s-171.926-384-384-384zM608 256h-224v128h96c17.672 0 32 14.326 32 32s-14.328 32-32 32h-96v32c0 52.934 43.066 96 96 96 34.17 0 66.042-18.404 83.18-48.030 8.85-15.298 28.426-20.526 43.722-11.676 15.296 8.848 20.526 28.424 11.676 43.722-28.538 49.336-81.638 79.984-138.578 79.984-88.224 0-160-71.776-160-160v-32h-32c-17.672 0-32-14.326-32-32s14.328-32 32-32h32v-192h288c17.674 0 32 14.326 32 32s-14.326 32-32 32z" />
<glyph unicode="&#xe9ea;" glyph-name="coin-yen" d="M480 896c-265.096 0-480-214.904-480-480s214.904-480 480-480c265.098 0 480 214.902 480 480s-214.902 480-480 480zM480 32c-212.078 0-384 171.922-384 384s171.922 384 384 384c212.076 0 384-171.922 384-384s-171.924-384-384-384zM608 384c17.674 0 32 14.326 32 32s-14.326 32-32 32h-68.208l94.832 142.25c9.804 14.704 5.83 34.572-8.876 44.376-14.704 9.802-34.572 5.83-44.376-8.876l-101.372-152.062-101.374 152.062c-9.804 14.706-29.672 18.68-44.376 8.876-14.706-9.804-18.678-29.672-8.876-44.376l94.834-142.25h-68.208c-17.672 0-32-14.326-32-32s14.328-32 32-32h96v-64h-96c-17.672 0-32-14.326-32-32s14.328-32 32-32h96v-96c0-17.674 14.328-32 32-32s32 14.326 32 32v96h96c17.674 0 32 14.326 32 32s-14.326 32-32 32h-96v64h96z" />
<glyph unicode="&#xe9eb;" glyph-name="credit-card" d="M928 832h-832c-52.8 0-96-43.2-96-96v-576c0-52.8 43.2-96 96-96h832c52.8 0 96 43.2 96 96v576c0 52.8-43.2 96-96 96zM96 768h832c17.346 0 32-14.654 32-32v-96h-896v96c0 17.346 14.654 32 32 32zM928 128h-832c-17.346 0-32 14.654-32 32v288h896v-288c0-17.346-14.654-32-32-32zM128 320h64v-128h-64zM256 320h64v-128h-64zM384 320h64v-128h-64z" />
<glyph unicode="&#xe9ec;" glyph-name="calculator" d="M384 896h-320c-35.2 0-64-28.8-64-64v-320c0-35.2 28.796-64 64-64h320c35.2 0 64 28.8 64 64v320c0 35.2-28.8 64-64 64zM384 640h-320v64h320v-64zM896 896h-320c-35.204 0-64-28.8-64-64v-832c0-35.2 28.796-64 64-64h320c35.2 0 64 28.8 64 64v832c0 35.2-28.8 64-64 64zM896 320h-320v64h320v-64zM896 512h-320v64h320v-64zM384 384h-320c-35.2 0-64-28.8-64-64v-320c0-35.2 28.796-64 64-64h320c35.2 0 64 28.8 64 64v320c0 35.2-28.8 64-64 64zM384 128h-128v-128h-64v128h-128v64h128v128h64v-128h128v-64z" />
</font>
</defs>
</svg>
